Asian

Meitantei Conan Movie 01XviDJapDubGerSub

  • Download 5x Faster
  • Download torrent
  • Direct Download
  • Rate this torrent +  |  -
Meitantei Conan Movie 01XviDJapDubGerSub

Anonymous and Free Direct Download


Torrent info

Name:Meitantei Conan Movie 01XviDJapDubGerSub

Total Size: 690.53 MB

Magnet: Magnet Link

Seeds: 1

Leechers: 0

Stream: Watch Online @ Movie4u

Last Updated: 2010-07-29 17:10:48 (Update Now)

Torrent added: 2008-10-27 08:35:14



VPN For Torrents

Torrent Files List


Meitantei_Conan_Movie_01.avi (Size: 690.53 MB) (Files: 1)

 Meitantei_Conan_Movie_01.avi

690.53 MB
 

Announce URL: http://h-n-h.ath.cx/announce.php

Torrent description

Kudou Shinichi ist ein junger High School Detektiv, der schon einige Fälle mit der Polizei gelöst hat. Genervt von den Vorbereitungen, zu der Klassenfahrt beschließt er nicht mitzufahren. Das ändert sich schlagartig als er Zuhause ankommt und ein Herausforderungsschreiben an der Tür findet. Welches eben besagt, das der Kidnapper jemanden während der Klassenfahrt entführen wird. Er nimmt die Herausforderung an, und macht sich auf den Weg einen weitern Fall zu lösen, sowie ein Versprechen mit Ran einzulösen.
Dieser Movie wurde zum 10. Jährigen Bestehen der Serie gedreht und erzählt die Vorgeschichte wie Kudou Shinichi zu Edogawa Conan wurde.


Allgemein
Vollständiger Name : D:Meitantei_Conan_Movie_01.avi
Format : AVI
Format/Info : Audio Video Interleave
Dateigre : 691 MiB
Duration : 1h 28min
Gesamte Bitrate : 1 086 Kbps
Verwendetes Programm : VirtualDubMod 1.5.10.2 (build 2540/release)
verwendete Encoder-Bibliothek : VirtualDubMod build 2540/release

Video
Format : MPEG-4 Visual
Format profile : Streaming [email protected]
Format settings, BVOP : Ja
Format settings, QPel : Ja
Format settings, GMC : No warppoints
Format settings, Matrix : Default
Muxing mode : Packet Bitstream
Codec ID : XVID
Codec ID/Hint : XviD
Duration : 1h 28min
Bitrate : 946 Kbps
Breite : 704 Pixel
Höhe : 396 Pixel
Bildseitenverhältnis : 16/9
Bildwiederholungsrate : 29,970 FPS
Auflösung : 24 bits
Colorimetry : 4:2:0
Scan type : Progressive
Bits/(Pixel*Frame) : 0.113
Stream size : 602 MiB (87)
verwendete Encoder-Bibliothek : XviD 1.1.2 (UTC 2006-11-01)

Audio
Format : MPEG Audio
Format version : Version 1
Format profile : Layer 3
Codec ID : 55
Codec ID/Hint : MP3
Duration : 1h 28min
Bitraten-Modus : Constant
Bitrate : 128 Kbps
Kanäle : 2 Kanäle
Samplingrate : 48,0 KHz
Auflösung : 16 bits
Video0 Verzögerung : 133ms
Stream size : 81,4 MiB (12)
Alignment : Split accross interleaves
Interleave, duration : 33 ms (1,00 video frame)
Interleave, preload duration : 500 ms

Sprache: Jap-Dub

Untertitel:Ger-Sub


http://h-n-h.ath.cx

related torrents

Torrent name

health leech seeds Size
 


comments (0)

Main Menu