Asian

Tantei Gakuen Q MovieXviDJapDubGerSub

  • Download 5x Faster
  • Download torrent
  • Direct Download
  • Rate this torrent +  |  -
Tantei Gakuen Q MovieXviDJapDubGerSub

Anonymous and Direct Download 300GB+ free


Torrent info

Name:Tantei Gakuen Q MovieXviDJapDubGerSub

Total Size: 683.31 MB

Magnet: Magnet Link

Seeds: 1

Leechers: 0

Stream: Watch Online @ Movie4u

Last Updated: 2010-08-27 02:43:59 (Update Now)

Torrent added: 2008-10-27 05:51:09




Torrent Files List


Tantei_Gakuen_Q_Movie.avi (Size: 683.31 MB) (Files: 1)

 Tantei_Gakuen_Q_Movie.avi

683.31 MB
 

Announce URL: http://h-n-h.ath.cx/announce.php

Torrent description

In Detective Academy Q geht es um die Q Klasse der Dan Detective School und wie die Schüler dieser Klasse verschiedene Detektiv Fälle löst. Um auf dieser Schule aufgenommen zu werden müssen die angehenden Schüler erst einmal einige schwere Tests hinter sich bringen.

Allgemein
Vollständiger Name : D:Tantei_Gakuen_Q_MovieTantei_Gakuen_Q_Movie.avi
Format : AVI
Format/Info : Audio Video Interleave
Dateigre : 683 MiB
Duration : 1h 33min
Gesamte Bitrate : 1 026 Kbps
Verwendetes Programm : VirtualDubMod 1.5.10.2 (build 2540/release)
verwendete Encoder-Bibliothek : VirtualDubMod build 2540/release

Video
Format : MPEG-4 Visual
Format profile : Streaming [email protected]
Format settings, BVOP : Ja
Format settings, QPel : Ja
Format settings, GMC : No warppoints
Format settings, Matrix : Default
Muxing mode : Packet Bitstream
Codec ID : XVID
Codec ID/Hint : XviD
Duration : 1h 33min
Bitrate : 855 Kbps
Breite : 704 Pixel
Höhe : 396 Pixel
Bildseitenverhältnis : 16/9
Bildwiederholungsrate : 29,970 FPS
Auflösung : 24 bits
Colorimetry : 4:2:0
Scan type : Progressive
Bits/(Pixel*Frame) : 0.102
Stream size : 569 MiB (83)
verwendete Encoder-Bibliothek : XviD 1.2.0.dev47 (UTC 2006-11-01)

Audio
Format : MPEG Audio
Format version : Version 1
Format profile : Layer 3
Codec ID : 55
Codec ID/Hint : MP3
Duration : 1h 33min
Bitraten-Modus : Constant
Bitrate : 160 Kbps
Minimum bit rate : 160 Kbps
Kanäle : 2 Kanäle
Samplingrate : 48,0 KHz
Auflösung : 16 bits
Stream size : 107 MiB (16)
Alignment : Aligned on interleaves
Interleave, duration : 33 ms (1,00 video frame)
Interleave, preload duration : 504 ms
verwendete Encoder-Bibliothek : LAME3.96r
Kodierungseinstellungen : CBR


Sprache: Jap-Dub

Untertitel: Ger-Sub


http://h-n-h.ath.cx

related torrents

Torrent name

health leech seeds Size
 


comments (0)

Main Menu