Music Videos

DTF Video GREATEST HITS THE BEST OF 60 and 70 CD1

  • Download 5x Faster
  • Download torrent
  • Direct Download
  • Rate this torrent +  |  -
DTF Video GREATEST HITS THE BEST OF 60 and 70 CD1

Free and Direct Download with Usenet.nl 300GB+ free


Torrent info

Name:DTF Video GREATEST HITS THE BEST OF 60 and 70 CD1

Total Size: 375.30 MB

Magnet: Magnet Link

Seeds: 0

Leechers: 0

Stream: Watch Online @ Movie4u

Last Updated: 2011-07-12 18:09:30 (Update Now)

Torrent added: 2008-10-26 16:40:59





Torrent Files List


1.Hot Shot - Fire in the Night.mpg (Size: 260.72 MB) (Files: 5)

 1.Hot Shot - Fire in the Night.mpg

71.71 MB

 11 Roxy Music - do the strand.avi

33.69 MB

 11.Andy Gibb - Time is Time.mpg

125.42 MB

 13 New York Dolls - jet boy.avi

29.90 MB

 musikvideo.nfo

9.97 KB
 

Announce URL:

Torrent description

Vollständiger Name : AliceCooper - under my wheels.avi
Format : AVI
Format/Info : Audio Video Interleave
Dateigröße : 26.6 MiB
Duration : 4min 15s
Gesamte Bitrate : 876 Kbps
verwendete Encoder-Bibliothek : VirtualDub build 15584/release

Video
Format : MPEG-4 Visual
Format settings, BVOP : Nein
Format settings, QPel : Nein
Format settings, GMC : No warpoints
Format settings, Matrix : Default
Codec ID : DX50
Codec ID/Hint : DivX 5
Duration : 4min 15s
Bitrate : 674 Kbps
Breite : 720 Pixel
Höhe : 540 Pixel
Bildseitenverhältnis : 4/3
Bildwiederholungsrate : 25.000 FPS
Auflösung : 8 bits
Colorimetry : 4:2:0
Scan type : Progressive
Bits/(Pixel*Frame) : 0.069
Stream size : 20.5 MiB
verwendete Encoder-Bibliothek : DivX 5.0.5 (UTC 2003-04-24)

Audio
Format : MPEG Audio
Format version : Version 1
Format profile : Layer 3
Codec ID : 55
Codec ID/Hint : MP3
Duration : 4min 15s
Bitraten-Modus : Constant
Bitrate : 192 Kbps
Kanäle : 2 Kanäle
Samplingrate : 44.1 KHz
Auflösung : 16 bits
Stream size : 5.83 MiB

Vollständiger Name : Hot Shot - Fire in the Night.mpg
Format : MPEG-PS
Dateigröße : 71.7 MiB
Duration : 1min 44s
Gesamte Bitrate : 5730 Kbps
verwendete Encoder-Bibliothek : Created by Nero

Video
Format : MPEG Video
Format version : Version 2
Format profile : [email protected]
Format settings, Matrix : Standard
Duration : 1min 44s
Bitraten-Modus : Constant
Bitrate : 5109 Kbps
Nominal bit rate : 9610 Kbps
Breite : 720 Pixel
Höhe : 576 Pixel
Bildseitenverhältnis : 4/3
Bildwiederholungsrate : 25.000 FPS
Standard : PAL
Colorimetry : 4:2:0
Scan type : Progressive
Bits/(Pixel*Frame) : 0.927
verwendete Encoder-Bibliothek : Created by Nero

Audio
Format : MPEG Audio
Format version : Version 1
Format profile : Layer 2
Duration : 1min 44s
Bitraten-Modus : Constant
Bitrate : 224 Kbps
Kanäle : 2 Kanäle
Samplingrate : 48.0 KHz
Auflösung : 16 bits
Video0 Verzögerung : -40ms

Allgemein
Vollständiger Name : Roxy Music - do the strand.avi
Format : AVI
Format/Info : Audio Video Interleave
Dateigröße : 33.7 MiB
Duration : 5min 19s
Gesamte Bitrate : 885 Kbps
verwendete Encoder-Bibliothek : VirtualDub build 15584/release

Video
Format : MPEG-4 Visual
Format settings, BVOP : Ja
Format settings, QPel : Nein
Format settings, GMC : No warpoints
Format settings, Matrix : Default
Codec ID : DX50
Codec ID/Hint : DivX 5
Duration : 5min 19s
Bitrate : 684 Kbps
Breite : 720 Pixel
Höhe : 540 Pixel
Bildseitenverhältnis : 4/3
Bildwiederholungsrate : 25.000 FPS
Auflösung : 8 bits
Scan type : Progressive
Bits/(Pixel*Frame) : 0.070
Stream size : 26.0 MiB
verwendete Encoder-Bibliothek : DivX 5.0.5 (UTC 2003-04-24)

Audio
Format : MPEG Audio
Format version : Version 1
Format profile : Layer 3
Codec ID : 55
Codec ID/Hint : MP3
Duration : 5min 19s
Bitraten-Modus : Constant
Bitrate : 192 Kbps
Kanäle : 2 Kanäle
Samplingrate : 44.1 KHz
Auflösung : 16 bits
Video0 Verzögerung : 6ms
Stream size : 7.30 MiB

Allgemein
Vollständiger Name : New York Dolls - jet boy.avi
Format : AVI
Format/Info : Audio Video Interleave
Dateigröße : 29.9 MiB
Duration : 4min 47s
Gesamte Bitrate : 873 Kbps
verwendete Encoder-Bibliothek : VirtualDub build 15584/release

Video
Format : MPEG-4 Visual
Format settings, BVOP : Ja
Format settings, QPel : Nein
Format settings, GMC : No warpoints
Format settings, Matrix : Default
Codec ID : DX50
Codec ID/Hint : DivX 5
Duration : 4min 47s
Bitrate : 672 Kbps
Breite : 720 Pixel
Höhe : 540 Pixel
Bildseitenverhältnis : 4/3
Bildwiederholungsrate : 25.000 FPS
Auflösung : 8 bits
Scan type : Progressive
Bits/(Pixel*Frame) : 0.069
Stream size : 23.0 MiB
verwendete Encoder-Bibliothek : DivX 5.0.5 (UTC 2003-04-24)

Audio
Format : MPEG Audio
Format version : Version 1
Format profile : Layer 3
Codec ID : 55
Codec ID/Hint : MP3
Duration : 4min 47s
Bitraten-Modus : Constant
Bitrate : 192 Kbps
Kanäle : 2 Kanäle
Samplingrate : 44.1 KHz
Auflösung : 16 bits
Video0 Verzögerung : 6ms
Stream size : 6.56 MiB
Allgemein
Vollständiger Name : Ewwylou Harris - Mister Sandman.mpg
Format : MPEG-PS
Dateigröße : 87.9 MiB
Duration : 2min 9s
Gesamte Bitrate : 5676 Kbps
verwendete Encoder-Bibliothek : Created by Nero

Video
Format : MPEG Video
Format version : Version 2
Format profile : [email protected]
Format settings, Matrix : Standard
Duration : 2min 9s
Bitraten-Modus : Constant
Bitrate : 5058 Kbps
Nominal bit rate : 9610 Kbps
Breite : 720 Pixel
Höhe : 576 Pixel
Bildseitenverhältnis : 4/3
Bildwiederholungsrate : 25.000 FPS
Standard : PAL
Colorimetry : 4:2:0
Scan type : Progressive
Bits/(Pixel*Frame) : 0.927
verwendete Encoder-Bibliothek : Created by Nero

Audio
Format : MPEG Audio
Format version : Version 1
Format profile : Layer 2
Duration : 2min 9s
Bitraten-Modus : Constant
Bitrate : 224 Kbps
Kanäle : 2 Kanäle
Samplingrate : 48.0 KHz
Auflösung : 16 bits
Video0 Verzögerung : -40ms

Allgemein
Vollständiger Name : Andy Gibb - Time is Time.mpg
Format : MPEG-PS
Dateigröße : 125 MiB
Duration : 3min 7s
Gesamte Bitrate : 5613 Kbps
verwendete Encoder-Bibliothek : Created by Nero

Video
Format : MPEG Video
Format version : Version 2
Format profile : [email protected]
Format settings, Matrix : Standard
Duration : 3min 7s
Bitraten-Modus : Constant
Bitrate : 4999 Kbps
Nominal bit rate : 9610 Kbps
Breite : 720 Pixel
Höhe : 576 Pixel
Bildseitenverhältnis : 4/3
Bildwiederholungsrate : 25.000 FPS
Standard : PAL
Colorimetry : 4:2:0
Scan type : Progressive
Bits/(Pixel*Frame) : 0.927
verwendete Encoder-Bibliothek : Created by Nero

Audio
Format : MPEG Audio
Format version : Version 1
Format profile : Layer 2
Duration : 3min 7s
Bitraten-Modus : Constant
Bitrate : 224 Kbps
Kanäle : 2 Kanäle
Samplingrate : 48.0 KHz
Auflösung : 16 bits
Video0 Verzögerung : -40ms





1.AliceCooper - under my wheels.avi
2.Hot Shot - Fire in the Night.mpg
3.Roxy Music - do the strand.avi
4.New York Dolls - jet boy.avi
5.Ewwylou Harris - Mister Sandman.mpg
6.Andy Gibb - Time is Time.mpg




related torrents

Torrent name

health leech seeds Size
 

comments (0)

Main Menu