Other

Chitrangada Bangla West Bengal Bangladesh Shanti Niketon Rabindra Nath Thakur

  • Download 5x Faster
  • Download torrent
  • Direct Download
  • Rate this torrent +  |  -

Torrent info

Name:Chitrangada Bangla West Bengal Bangladesh Shanti Niketon Rabindra Nath Thakur

Total Size: 464.63 MB

Magnet: Magnet Link

Seeds: 0

Leechers: 0

Stream: Watch Online @ Movie4u

Last Updated: 2015-09-20 15:15:48 (Update Now)

Torrent added: 2008-10-26 15:01:01



VPN For Torrents

Torrent Files List


Chitrangada_Robi.avi (Size: 464.63 MB) (Files: 1)

 Chitrangada_Robi.avi

464.63 MB
 

tracker

leech seeds
 

Torrent description

Chitrangada ... Geeti Nritto
The presentation was made by Shantiniketon.
All west bengal.
Enjoy....


Format : AVI
Format/Info : Audio Video Interleave
File size : 465 MiB
Duration : 48mn 23s
Overall bit rate : 1 342 Kbps

Video
Format : MPEG-4 Visual
Format profile : [email protected]
Format settings, BVOP : No
Format settings, QPel : No
Format settings, GMC : No warppoints
Format settings, Matrix : Default
Codec ID : DIVX
Codec ID/Info : Project Mayo
Codec ID/Hint : DivX 4
Duration : 48mn 23s
Bit rate : 1 200 Kbps
Width : 704 pixels
Height : 480 pixels
Display aspect ratio : 1.467
Frame rate : 29.970 fps
Resolution : 24 bits
Colorimetry : 4:2:0
Scan type : Progressive
Bits/(Pixel*Frame) : 0.119
Stream size : 416 MiB (89%)
Writing library : avc2.0.11.1110

Audio
Format : MPEG Audio
Format version : Version 1
Format profile : Layer 3
Codec ID : 55
Codec ID/Hint : MP3
Bit rate mode : Constant
Bit rate : 128 Kbps
Channel(s) : 2 channels
Sampling rate : 48.0 KHz
Resolution : 16 bits
Stream size : 44.3 MiB (10%)
Alignment : Aligned on interleaves
Interleave, duration : 24 ms (0.72 video frame)

related torrents

Torrent name

health leech seeds Size
 


comments (0)

Main Menu