Action

You Dont Mess with the Zohan 2008 French DVDRiP DivX Bezans avi

  • Download 5x Faster
  • Download torrent
  • Direct Download
  • Rate this torrent +  |  -
You Dont Mess with the Zohan 2008 French DVDRiP DivX Bezans avi

Anonymous and Free Direct Download 300GB+


Torrent info

Name:You Dont Mess with the Zohan 2008 French DVDRiP DivX Bezans avi

Total Size: 698.12 MB

Magnet: Magnet Link

Seeds: 1

Leechers: 72

Stream: Watch Online @ Movie4u

Last Updated: 2010-12-31 06:06:03 (Update Now)

Torrent added: 2008-10-26 12:40:31



VPN For Torrents

Torrent Files List


You Don't Mess with the Zohan.2008-French-DVDRiP-DivX-Bezans.avi (Size: 698.12 MB) (Files: 1)

 You Don't Mess with the Zohan.2008-French-DVDRiP-DivX-Bezans.avi

698.12 MB
 

Announce URL: http://open.tracker.thepiratebay.org/announce

Torrent description

General
Format : AVI
Format/Info : Audio Video Interleave
File size : 698 MiB
Duration : 1h 57mn
Overall bit rate : 831 Kbps
Writing application : Lavf51.12.1
===============================================================================================
Video
Format : MPEG-4 Visual
Format profile : [email protected]
Format settings, BVOP : No
Format settings, QPel : No
Format settings, GMC : No warppoints
Format settings, Matrix : Default
Codec ID : divx
Duration : 1h 57mn
Bit rate : 690 Kbps
Width : 720 pixels
Height : 480 pixels
Display aspect ratio : 1.500
Frame rate : 23.976 fps
Standard : NTSC
Resolution : 24 bits
Colorimetry : 4:2:0
Scan type : Progressive
Bits/(Pixel*Frame) : 0.083
Stream size : 580 MiB (83%)
Writing library : Lavc51.40.4
===============================================================================================
Audio
Format : MPEG Audio
Format version : Version 1
Format profile : Layer 3
Codec ID : 55
Codec ID/Hint : MP3
Duration : 1h 57mn
Bit rate mode : Constant
Bit rate : 128 Kbps
Channel(s) : 2 channels
Sampling rate : 48.0 KHz
Resolution : 16 bits
Stream size : 108 MiB (15%)
Alignment : Aligned on interleaves
Interleave, duration : 24 ms (0.58 video frame)
Writing library : LAME3.97

related torrents

Torrent name

health leech seeds Size
 


comments (0)

Main Menu