Metal

Cradle Of Filth Godspeed On The Devils Thunder (Special Edition) (2008) (FLAC) KEVOO7

  • Download 5x Faster
  • Download torrent
  • Direct Download
  • Rate this torrent +  |  -

Torrent info

Name:Cradle Of Filth Godspeed On The Devils Thunder (Special Edition) (2008) (FLAC) KEVOO7

Total Size: 956.16 MB

Magnet: Magnet Link

Seeds: 0

Leechers: 0

Stream: Watch Online @ Movie4u

Last Updated: 2016-02-22 22:38:01 (Update Now)

Torrent added: 2008-10-26 00:34:57




Torrent Files List


CD 1 (Size: 956.16 MB) (Files: 34)

 CD 1

  00. Cradle Of Filth 'Godspeed On The Devil's Thunder' (Special Edition) (CD1) (2008) (FLAC) -KEVOO7.cue

2.48 KB

  00. Cradle Of Filth 'Godspeed On The Devil's Thunder' (Special Edition) (CD1) (2008) (FLAC) -KEVOO7.log

5.09 KB

  00. Cradle Of Filth 'Godspeed On The Devil's Thunder' (Special Edition) (CD1) (2008) (FLAC) -KEVOO7.m3u

1.12 KB

  00. Cradle Of Filth 'Godspeed On The Devil's Thunder' (Special Edition) (CD1) (2008) (FLAC) -KEVOO7.nfo

4.03 KB

  00. Cradle Of Filth 'Godspeed On The Devil's Thunder' (Special Edition) (CD1) (2008) (FLAC) -KEVOO7.sfv

2.56 KB

  01. In Grandeur And Frankincense Devilment Stirs.flac

14.50 MB

  02. Shat Out Of Hell.flac

39.11 MB

  03. The Death Of Love.flac

53.84 MB

  04. The 13th Caesar.flac

41.39 MB

  05. Tiffauges.flac

12.91 MB

  06. Tragic Kingdom.flac

46.23 MB

  07. Sweetest Maleficia.flac

45.51 MB

  08. Honey And Sulphur.flac

42.16 MB

  09. Midnight Shadows Crawl To Darken Counsel With Life.flac

66.70 MB

  10. Darkness Incarnate.flac

66.06 MB

  11. Ten Leagues Beneath Contempt.flac

37.66 MB

  12. Godspeed On The Devil's Thunder.flac

42.27 MB

  13. Corpseflower.flac

16.43 MB

 CD 2

  00. Cradle Of Filth 'Godspeed On The Devil's Thunder' (Special Edition) (CD2) (2008) (FLAC) -KEVOO7.cue

2.09 KB

  00. Cradle Of Filth 'Godspeed On The Devil's Thunder' (Special Edition) (CD2) (2008) (FLAC) -KEVOO7.log

4.41 KB

  00. Cradle Of Filth 'Godspeed On The Devil's Thunder' (Special Edition) (CD2) (2008) (FLAC) -KEVOO7.m3u

0.88 KB

  00. Cradle Of Filth 'Godspeed On The Devil's Thunder' (Special Edition) (CD2) (2008) (FLAC) -KEVOO7.nfo

3.77 KB

  00. Cradle Of Filth 'Godspeed On The Devil's Thunder' (Special Edition) (CD2) (2008) (FLAC) -KEVOO7.sfv

2.24 KB

  01. Balsamic And Anathema.flac

46.12 MB

  02. A Thousand Hands On The Maid Of Ruin.flac

59.16 MB

  03. Into The Crypt Of Rays.flac

31.21 MB

  04. Devil To The Metal.flac

48.63 MB

  05. Courting Baphomet.flac

40.11 MB

  06. The Love Of Death (Remix).flac

30.94 MB

  07. The Death Of Love (Demo).flac

50.31 MB

  08. The 13th Caesar (Demo).flac

38.30 MB

  09. Dirge Inferno (Live).flac

45.55 MB

  10. Dusk And Her Embrace (Live).flac

41.05 MB

 Torrent downloaded from Demonoid.com.txt

0.05 KB
 

tracker

leech seeds
 

Torrent description

ÏÏÏÏÏÏÏÏÏÏÏÏÏÏÏÏÏÏÏÏÏÏÏÏÏÏÏÏÏÏÏÏÏÏÏÏÏÏÏÏÏÏÏÏÏÏÏÏÏÏÏÏÏÏÏÏÏÏÏÏÏÏÏÏÏÏÏÏÏÏÏÏÏÏÏÏÏÏÏÏÏÏÏÏÏÏÏÏÏÏÏÏÏÏÏÏÏÏÏÏÏÏÏÏÏ
Information
Artist.............: Cradle Of Filth
Album..............: Godspeed On The Devil's Thunder (Special Edition)
Year...............: 2008
Genre..............: Black Metal

Duration
CD 1.............: 71 Minutes And 14 Seconds
Number Of Tracks
CD 1.............: 13

Size...............: 524 MB

Audio Format.......: FLAC
Ripper.............: Exact Audio Copy v0.99 Prebeta 4
Encoder............: FLAC 1.2.1b
Bitrate............: Lossless
Hz.................: 44,100
Channels...........: Stereo
Reader.............: Plextor PX-760A
Source.............: Retail CD

Tagged With........: Tag&Rename v3.2

File Validation....: SFV

ÏÏÏÏÏÏÏÏÏÏÏÏÏÏÏÏÏÏÏÏÏÏÏÏÏÏÏÏÏÏÏÏÏÏÏÏÏÏÏÏÏÏÏÏÏÏÏÏÏÏÏÏÏÏÏÏÏÏÏÏÏÏÏÏÏÏÏÏÏÏÏÏÏÏÏÏÏÏÏÏÏÏÏÏÏÏÏÏÏÏÏÏÏÏÏÏÏÏÏÏÏÏÏÏÏ
Tracklist
01. In Grandeur And Frankincense Devilment Stirs [2:27]
02. Shat Out Of Hell [5:03]
03. The Death Of Love [7:13]
04. The 13th Caesar [5:35]
05. Tiffauges [2:14]
06. Tragic Kingdom [5:59]
07. Sweetest Maleficia [5:58]
08. Honey And Sulphur [5:37]
09. Midnight Shadows Crawl To Darken Counsel With Life [8:58]
10. Darkness Incarnate [8:55]
11. Ten Leagues Beneath Contempt [4:58]
12. Godspeed On The Devil's Thunder [5:36]
13. Corpseflower [2:41]

ÏÏÏÏÏÏÏÏÏÏÏÏÏÏÏÏÏÏÏÏÏÏÏÏÏÏÏÏÏÏÏÏÏÏÏÏÏÏÏÏÏÏÏÏÏÏÏÏÏÏÏÏÏÏÏÏÏÏÏÏÏÏÏÏÏÏÏÏÏÏÏÏÏÏÏÏÏÏÏÏÏÏÏÏÏÏÏÏÏÏÏÏÏÏÏÏÏÏÏÏÏÏÏÏÏ

ÉÍÍÍÍÍÍÍÍÍÍÍÍÍÍÍÍÍÍÍÍÍÍÍÍÍÍÍÍÍÍÍÍÍÍÍÍÍÍÍÍÍÍÍÍÍÍÍÍÍÍÍÍÍÍÍÍÍÍÍÍÍÍÍÍÍÍÍÍÍÍÍÍÍÍÍÍÍÍÍÍÍÍÍÍÍÍÍÍÍÍÍÍÍÍÍÍÍÍÍÍÍÍÍ»
º!!!!!!!!!!!!!!!!!!!!!!!!!!!!!!!!!!!ENJOY!!!!!!!!!!!!!!!!!!!!!!!!!!!!!!!!!!!!!!!!!!!!!!!!!!!!!!!!!!!!!!!º
º!!!!!!!!!!!!!!!!!!!!!!!!!!!!!!!!!!!!!!!!!!!!!!GREETZZZZ!!!!!!!!!!!!!!!!!!!!!!!!!!!!!!!!!!!!!!!!!!!!!!!!º
º!!!!!!!!!!!!!!!!!!!!!!!!!!!!!!!!!!!!!!!!!!!!!!!!!!!!!!!!!!!!!!KEVOO7!!!!!!!!!!!!!!!!!!!!!!!!!!!!!!!!!!!º
ÈÍÍÍÍÍÍÍÍÍÍÍÍÍÍÍÍÍÍÍÍÍÍÍÍÍÍÍÍÍÍÍÍÍÍÍÍÍÍÍÍÍÍÍÍÍÍÍÍÍÍÍÍÍÍÍÍÍÍÍÍÍÍÍÍÍÍÍÍÍÍÍÍÍÍÍÍÍÍÍÍÍÍÍÍÍÍÍÍÍÍÍÍÍÍÍÍÍÍÍÍÍÍͼ

Exact Audio Copy V0.99 prebeta 4 from 23. January 2008

EAC extraction logfile from 26. October 2008, 1:34

Cradle Of Filth / Godspeed On The Devil's Thunder (Special Edition)

Used drive : PLEXTOR DVDR PX-760A Adapter: 1 ID: 0

Read mode : Secure
Utilize accurate stream : Yes
Defeat audio cache : Yes
Make use of C2 pointers : No

Read offset correction : 30
Overread into Lead-In and Lead-Out : No
Fill up missing offset samples with silence : Yes
Delete leading and trailing silent blocks : No
Null samples used in CRC calculations : No
Used interface : Installed external ASPI interface
Gap handling : Appended to previous track

Used output format : User Defined Encoder
Selected bitrate : 256 kBit/s
Quality : High
Add ID3 tag : No
Command line compressor : C:\Program Files\FLAC\flac.exe
Additional command line options : -8 %s


TOC of the extracted CD

Track | Start | Length | Start sector | End sector
---------------------------------------------------------
1 | 0:00.00 | 2:27.06 | 0 | 11030
2 | 2:27.06 | 5:03.22 | 11031 | 33777
3 | 7:30.28 | 7:13.53 | 33778 | 66305
4 | 14:44.06 | 5:35.62 | 66306 | 91492
5 | 20:19.68 | 2:14.29 | 91493 | 101571
6 | 22:34.22 | 5:59.41 | 101572 | 128537
7 | 28:33.63 | 5:58.70 | 128538 | 155457
8 | 34:32.58 | 5:37.52 | 155458 | 180784
9 | 40:10.35 | 8:58.45 | 180785 | 221179
10 | 49:09.05 | 8:55.66 | 221180 | 261370
11 | 58:04.71 | 4:58.42 | 261371 | 283762
12 | 63:03.38 | 5:36.57 | 283763 | 309019
13 | 68:40.20 | 2:41.54 | 309020 | 321148


Track 1

Filename C:\Documents and Settings\KEVOO7\My Documents\New Rip's\01. In Grandeur And Frankincense Devilment Stirs.wav

Pre-gap length 0:00:02.00

Peak level 100.0 %
Track quality 99.9 %
Test CRC 0FF57B81
Copy CRC 0FF57B81
Copy OK

Track 2

Filename C:\Documents and Settings\KEVOO7\My Documents\New Rip's\02. Shat Out Of Hell.wav

Peak level 99.4 %
Track quality 100.0 %
Test CRC A3D8276F
Copy CRC A3D8276F
Copy OK

Track 3

Filename C:\Documents and Settings\KEVOO7\My Documents\New Rip's\03. The Death Of Love.wav

Peak level 100.0 %
Track quality 100.0 %
Test CRC 7BD82A13
Copy CRC 7BD82A13
Copy OK

Track 4

Filename C:\Documents and Settings\KEVOO7\My Documents\New Rip's\04. The 13th Caesar.wav

Peak level 99.4 %
Track quality 100.0 %
Test CRC 7851B161
Copy CRC 7851B161
Copy OK

Track 5

Filename C:\Documents and Settings\KEVOO7\My Documents\New Rip's\05. Tiffauges.wav

Peak level 99.9 %
Track quality 100.0 %
Test CRC 14548729
Copy CRC 14548729
Copy OK

Track 6

Filename C:\Documents and Settings\KEVOO7\My Documents\New Rip's\06. Tragic Kingdom.wav

Pre-gap length 0:00:00.01

Peak level 99.9 %
Track quality 100.0 %
Test CRC A2742DA5
Copy CRC A2742DA5
Copy OK

Track 7

Filename C:\Documents and Settings\KEVOO7\My Documents\New Rip's\07. Sweetest Maleficia.wav

Peak level 100.0 %
Track quality 99.9 %
Test CRC 6540B275
Copy CRC 6540B275
Copy OK

Track 8

Filename C:\Documents and Settings\KEVOO7\My Documents\New Rip's\08. Honey And Sulphur.wav

Pre-gap length 0:00:00.42

Peak level 100.0 %
Track quality 99.9 %
Test CRC 82FF9789
Copy CRC 82FF9789
Copy OK

Track 9

Filename C:\Documents and Settings\KEVOO7\My Documents\New Rip's\09. Midnight Shadows Crawl To Darken Counsel With Life.wav

Peak level 99.7 %
Track quality 99.9 %
Test CRC 982DCFBE
Copy CRC 982DCFBE
Copy OK

Track 10

Filename C:\Documents and Settings\KEVOO7\My Documents\New Rip's\10. Darkness Incarnate.wav

Peak level 100.0 %
Track quality 100.0 %
Test CRC 675B4D17
Copy CRC 675B4D17
Copy OK

Track 11

Filename C:\Documents and Settings\KEVOO7\My Documents\New Rip's\11. Ten Leagues Beneath Contempt.wav

Peak level 100.0 %
Track quality 100.0 %
Test CRC 0F7CDB8B
Copy CRC 0F7CDB8B
Copy OK

Track 12

Filename C:\Documents and Settings\KEVOO7\My Documents\New Rip's\12. Godspeed On The Devil's Thunder.wav

Peak level 100.0 %
Track quality 100.0 %
Test CRC 7EA8F6CB
Copy CRC 7EA8F6CB
Copy OK

Track 13

Filename C:\Documents and Settings\KEVOO7\My Documents\New Rip's\13. Corpseflower.wav

Peak level 100.0 %
Track quality 99.9 %
Test CRC 4DCDBA7F
Copy CRC 4DCDBA7F
Copy OK

No errors occurred

End of status report

ÏÏÏÏÏÏÏÏÏÏÏÏÏÏÏÏÏÏÏÏÏÏÏÏÏÏÏÏÏÏÏÏÏÏÏÏÏÏÏÏÏÏÏÏÏÏÏÏÏÏÏÏÏÏÏÏÏÏÏÏÏÏÏÏÏÏÏÏÏÏÏÏÏÏÏÏÏÏÏÏÏÏÏÏÏÏÏÏÏÏÏÏÏÏÏÏÏÏÏÏÏÏÏÏÏ
Information
Artist.............: Cradle Of Filth
Album..............: Godspeed On The Devil's Thunder (Special Edition)
Year...............: 2008
Genre..............: Black Metal

Duration
CD 2.............: 60 Minutes And 20 Seconds
Number Of Tracks
CD 2.............: 10

Size...............: 431 MB

Audio Format.......: FLAC
Ripper.............: Exact Audio Copy v0.99 Prebeta 4
Encoder............: FLAC 1.2.1b
Bitrate............: Lossless
Hz.................: 44,100
Channels...........: Stereo
Reader.............: Plextor PX-760A
Source.............: Retail CD

Tagged With........: Tag&Rename v3.2

File Validation....: SFV

ÏÏÏÏÏÏÏÏÏÏÏÏÏÏÏÏÏÏÏÏÏÏÏÏÏÏÏÏÏÏÏÏÏÏÏÏÏÏÏÏÏÏÏÏÏÏÏÏÏÏÏÏÏÏÏÏÏÏÏÏÏÏÏÏÏÏÏÏÏÏÏÏÏÏÏÏÏÏÏÏÏÏÏÏÏÏÏÏÏÏÏÏÏÏÏÏÏÏÏÏÏÏÏÏÏ
Tracklist
01. Balsamic And Anathema [6:05]
02. A Thousand Hands On The Maid Of Ruin [8:04]
03. Into The Crypt Of Rays [4:10]
04. Devil To The Metal [6:17]
05. Courting Baphomet [5:17]
06. The Love Of Death (Remix) [5:13]
07. The Death Of Love (Demo) [7:16]
08. The 13th Caesar (Demo) [5:27]
09. Dirge Inferno (Live) [6:45]
10. Dusk And Her Embrace (Live) [5:46]

ÏÏÏÏÏÏÏÏÏÏÏÏÏÏÏÏÏÏÏÏÏÏÏÏÏÏÏÏÏÏÏÏÏÏÏÏÏÏÏÏÏÏÏÏÏÏÏÏÏÏÏÏÏÏÏÏÏÏÏÏÏÏÏÏÏÏÏÏÏÏÏÏÏÏÏÏÏÏÏÏÏÏÏÏÏÏÏÏÏÏÏÏÏÏÏÏÏÏÏÏÏÏÏÏÏ

ÉÍÍÍÍÍÍÍÍÍÍÍÍÍÍÍÍÍÍÍÍÍÍÍÍÍÍÍÍÍÍÍÍÍÍÍÍÍÍÍÍÍÍÍÍÍÍÍÍÍÍÍÍÍÍÍÍÍÍÍÍÍÍÍÍÍÍÍÍÍÍÍÍÍÍÍÍÍÍÍÍÍÍÍÍÍÍÍÍÍÍÍÍÍÍÍÍÍÍÍÍÍÍÍ»
º!!!!!!!!!!!!!!!!!!!!!!!!!!!!!!!!!!!ENJOY!!!!!!!!!!!!!!!!!!!!!!!!!!!!!!!!!!!!!!!!!!!!!!!!!!!!!!!!!!!!!!!º
º!!!!!!!!!!!!!!!!!!!!!!!!!!!!!!!!!!!!!!!!!!!!!!GREETZZZZ!!!!!!!!!!!!!!!!!!!!!!!!!!!!!!!!!!!!!!!!!!!!!!!!º
º!!!!!!!!!!!!!!!!!!!!!!!!!!!!!!!!!!!!!!!!!!!!!!!!!!!!!!!!!!!!!!KEVOO7!!!!!!!!!!!!!!!!!!!!!!!!!!!!!!!!!!!º
ÈÍÍÍÍÍÍÍÍÍÍÍÍÍÍÍÍÍÍÍÍÍÍÍÍÍÍÍÍÍÍÍÍÍÍÍÍÍÍÍÍÍÍÍÍÍÍÍÍÍÍÍÍÍÍÍÍÍÍÍÍÍÍÍÍÍÍÍÍÍÍÍÍÍÍÍÍÍÍÍÍÍÍÍÍÍÍÍÍÍÍÍÍÍÍÍÍÍÍÍÍÍÍͼ

Exact Audio Copy V0.99 prebeta 4 from 23. January 2008

EAC extraction logfile from 26. October 2008, 2:40

Cradle Of Filth / Godspeed On The Devil's Thunder (Special Edition)

Used drive : PLEXTOR DVDR PX-760A Adapter: 1 ID: 0

Read mode : Secure
Utilize accurate stream : Yes
Defeat audio cache : Yes
Make use of C2 pointers : No

Read offset correction : 30
Overread into Lead-In and Lead-Out : No
Fill up missing offset samples with silence : Yes
Delete leading and trailing silent blocks : No
Null samples used in CRC calculations : No
Used interface : Installed external ASPI interface
Gap handling : Appended to previous track

Used output format : User Defined Encoder
Selected bitrate : 256 kBit/s
Quality : High
Add ID3 tag : No
Command line compressor : C:\Program Files\FLAC\flac.exe
Additional command line options : -8 %s


TOC of the extracted CD

Track | Start | Length | Start sector | End sector
---------------------------------------------------------
1 | 0:00.00 | 6:05.50 | 0 | 27424
2 | 6:05.50 | 8:04.50 | 27425 | 63774
3 | 14:10.25 | 4:10.68 | 63775 | 82592
4 | 18:21.18 | 6:17.73 | 82593 | 110940
5 | 24:39.16 | 5:17.42 | 110941 | 134757
6 | 29:56.58 | 5:13.00 | 134758 | 158232
7 | 35:09.58 | 7:16.66 | 158233 | 190998
8 | 42:26.49 | 5:27.43 | 190999 | 215566
9 | 47:54.17 | 6:45.67 | 215567 | 246008
10 | 54:40.09 | 5:46.28 | 246009 | 271986


Track 1

Filename C:\Documents and Settings\KEVOO7\My Documents\New Rip's\01. Balsamic And Anathema.wav

Pre-gap length 0:00:02.00

Peak level 99.9 %
Track quality 100.0 %
Test CRC D6546838
Copy CRC D6546838
Copy OK

Track 2

Filename C:\Documents and Settings\KEVOO7\My Documents\New Rip's\02. A Thousand Hands On The Maid Of Ruin.wav

Pre-gap length 0:00:00.10

Peak level 99.9 %
Track quality 100.0 %
Test CRC 89CC3DA0
Copy CRC 89CC3DA0
Copy OK

Track 3

Filename C:\Documents and Settings\KEVOO7\My Documents\New Rip's\03. Into The Crypt Of Rays.wav

Pre-gap length 0:00:01.03

Peak level 99.9 %
Track quality 100.0 %
Test CRC 2BF618CC
Copy CRC 2BF618CC
Copy OK

Track 4

Filename C:\Documents and Settings\KEVOO7\My Documents\New Rip's\04. Devil To The Metal.wav

Pre-gap length 0:00:00.01

Peak level 99.9 %
Track quality 100.0 %
Test CRC 2D75E67F
Copy CRC 2D75E67F
Copy OK

Track 5

Filename C:\Documents and Settings\KEVOO7\My Documents\New Rip's\05. Courting Baphomet.wav

Pre-gap length 0:00:00.46

Peak level 99.9 %
Track quality 100.0 %
Test CRC 0D9C4159
Copy CRC 0D9C4159
Copy OK

Track 6

Filename C:\Documents and Settings\KEVOO7\My Documents\New Rip's\06. The Love Of Death (Remix).wav

Peak level 99.9 %
Track quality 100.0 %
Test CRC F1C3240A
Copy CRC F1C3240A
Copy OK

Track 7

Filename C:\Documents and Settings\KEVOO7\My Documents\New Rip's\07. The Death Of Love (Demo).wav

Pre-gap length 0:00:02.01

Peak level 99.9 %
Track quality 100.0 %
Test CRC AA237593
Copy CRC AA237593
Copy OK

Track 8

Filename C:\Documents and Settings\KEVOO7\My Documents\New Rip's\08. The 13th Caesar (Demo).wav

Pre-gap length 0:00:00.02

Peak level 99.9 %
Track quality 100.0 %
Test CRC 84C032F3
Copy CRC 84C032F3
Copy OK

Track 9

Filename C:\Documents and Settings\KEVOO7\My Documents\New Rip's\09. Dirge Inferno (Live).wav

Pre-gap length 0:00:00.01

Peak level 98.0 %
Track quality 100.0 %
Test CRC 654A948E
Copy CRC 654A948E
Copy OK

Track 10

Filename C:\Documents and Settings\KEVOO7\My Documents\New Rip's\10. Dusk And Her Embrace (Live).wav

Peak level 98.1 %
Track quality 99.9 %
Test CRC A5A1A3DD
Copy CRC A5A1A3DD
Copy OK

No errors occurred

End of status report

Enjoy And SEED

related torrents

Torrent name

health leech seeds Size
 

comments (0)

Main Menu