Other

Wyatt Earp 1994DVDRip Xvid fragment

  • Download 5x Faster
  • Download torrent
  • Direct Download
  • Rate this torrent +  |  -
Wyatt Earp 1994DVDRip Xvid fragment

Free and Direct Download with Usenet.nl 300GB+ free


Torrent info

Name:Wyatt Earp 1994DVDRip Xvid fragment

Total Size: 1.37 GB

Magnet: Magnet Link

Seeds: 0

Leechers: 0

Stream: Watch Online @ Movie4u

Last Updated: 0000-00-00 00:00:00 (Update Now)

Torrent added: 2008-10-25 23:50:53





Torrent Files List


Wyatt-Earp_[1994]DVDRip-Xvid-fragment1.avi (Size: 1.37 GB) (Files: 4)

 Wyatt-Earp_[1994]DVDRip-Xvid-fragment1.avi

700.07 MB

 Wyatt-Earp_[1994]DVDRip-Xvid-fragment1.srt

59.85 KB

 Wyatt-Earp_[1994]DVDRip-Xvid-fragment2.avi

700.47 MB

 Wyatt-Earp_[1994]DVDRip-Xvid-fragment2.srt

55.16 KB
 

Announce URL:

Torrent description

General
Complete name : Wyatt-Earp_[1994]DVDRip-Xvid-fragment1.avi
Format : AVI
Format/Info : Audio Video Interleave
File size : 700 MiB
Duration : 1h 40mn
Overall bit rate : 978 Kbps
Writing application : Nandub v1.0rc2
Writing library : Nandub build 1852/release

Video
Format : MPEG-4 Visual
Format profile : Streaming [email protected]
Format settings, BVOP : Yes
Format settings, QPel : No
Format settings, GMC : No warppoints
Format settings, Matrix : Default
Muxing mode : Packed bitstream
Codec ID : XVID
Codec ID/Hint : XviD
Duration : 1h 40mn
Bit rate : 842 Kbps
Width : 624 pixels
Height : 256 pixels
Display aspect ratio : 2.438
Frame rate : 23.976 fps
Resolution : 24 bits
Colorimetry : 4:2:0
Scan type : Progressive
Bits/(Pixel*Frame) : 0.220
Stream size : 602 MiB (86%)
Writing library : XviD 1.0.0 (UTC 2004-05-09)

Audio
Format : MPEG Audio
Format version : Version 1
Format profile : Layer 3
Codec ID : 55
Codec ID/Hint : MP3
Duration : 1h 40mn
Bit rate mode : Constant
Bit rate : 32.0 Kbps
Channel(s) : 2 channels
Sampling rate : 48.0 KHz
Resolution : 16 bits
Stream size : 88.6 MiB (13%)
Alignment : Aligned on interleaves
Interleave, duration : 24 ms (0.58 video frame)
Interleave, preload duration : 480 ms
Writing library : LAME3.93

=====================

General
Complete name : Wyatt-Earp_[1994]DVDRip-Xvid-fragment2.avi
Format : AVI
Format/Info : Audio Video Interleave
File size : 700 MiB
Duration : 1h 30mn
Overall bit rate : 1 081 Kbps
Writing application : Nandub v1.0rc2
Writing library : Nandub build 1852/release

Video
Format : MPEG-4 Visual
Format profile : Streaming [email protected]
Format settings, BVOP : Yes
Format settings, QPel : No
Format settings, GMC : No warppoints
Format settings, Matrix : Default
Muxing mode : Packed bitstream
Codec ID : XVID
Codec ID/Hint : XviD
Duration : 1h 30mn
Bit rate : 947 Kbps
Width : 624 pixels
Height : 256 pixels
Display aspect ratio : 2.438
Frame rate : 23.976 fps
Resolution : 24 bits
Colorimetry : 4:2:0
Scan type : Progressive
Bits/(Pixel*Frame) : 0.247
Stream size : 613 MiB (88%)
Writing library : XviD 1.0.0 (UTC 2004-05-09)

Audio
Format : MPEG Audio
Format version : Version 1
Format profile : Layer 3
Codec ID : 55
Codec ID/Hint : MP3
Duration : 1h 30mn
Bit rate mode : Variable
Bit rate : 123 Kbps
Channel(s) : 2 channels
Sampling rate : 48.0 KHz
Resolution : 16 bits
Stream size : 78.9 MiB (11%)
Alignment : Aligned on interleaves
Interleave, duration : 24 ms (0.58 video frame)
Interleave, preload duration : 390 ms

related torrents

Torrent name

health leech seeds Size
 

comments (0)

Main Menu