Drama

Tea with Mussolini (1999)

  • Download 5x Faster
  • Download torrent
  • Direct Download
  • Rate this torrent +  |  -
Tea with Mussolini (1999)

Free and Direct Download with Usenet 300GB+ free


Torrent info

Name:Tea with Mussolini (1999)

Total Size: 695.51 MB

Magnet: Magnet Link

Seeds: 0

Leechers: 0

Stream: Watch Online @ Movie4u

Last Updated: 2015-05-23 18:30:21 (Update Now)

Torrent added: 2008-10-25 16:35:19




Torrent Files List


Info about this release.txt (Size: 695.51 MB) (Files: 4)

 Info about this release.txt

4.42 KB

 Notes on subtitle files.txt

1.68 KB

 Tea with Mussolini (1999) optional_Swedish subtitles.rar

883.65 KB

 Tea with Mussolini (1999) optional_Swesubs_Kuth.avi

694.64 MB
 

Announce URL:

Torrent description

Tea with Mussolini (1999)
Optional Swedish subtitles in separate idx/sub files.

All available subs here

Britain's great old ladies and Oscar-winners, Judi Dench and Maggie Smith in the same film, and together with Cher! This quality drama from Italy during WW2 portrays the charming and eccentric British ladies living there in their own word, almost refusing to accept that a war was goin on.

Written and directed by famous multitalent Franco Zeffirelli, based on his own childhood experiences.

DVDrip 2-pass, XviD
Widescreen 784x384, great stereo sound AC3.
Burn tested, runs well in both my standalone DivX players.


Format/Info : Audio Video Interleave
File size : 695 MiB
Duration : 1h 52mn
Overal bit rate : 861 Kbps

Video
Format : MPEG-4 Visual
Format profile : Streaming [email protected]
Format settings, BVOP : Yes
Format settings, QPel : No
Format settings, GMC : No warppoints
Format settings, Matrix : Default
Muxing mode : Packet Bitstream
Codec ID : XVID
Codec ID/Hint : XviD
Duration : 1h 52mn
Bit rate : 724 Kbps
Width : 704 pixels
Height : 384 pixels
Display aspect ratio : 16/9
Frame rate : 25.000 fps
Resolution : 8 bits
Colorimetry : 4:2:0
Scan type : Progressive
Bits/(Pixel*Frame) : 0.107
Stream size : 584 MiB
Writing library : XviD 1.2.0.dev47 (UTC 2006-11-01)

Audio
Format : MPEG Audio
Format version : Version 1
Format profile : Layer 3
Codec ID : 55
Codec ID/Hint : MP3
Duration : 1h 52mn
Bit rate mode : Constant
Bit rate : 128 Kbps
Minimum bit rate : 128 Kbps
Channel(s) : 2 channels
Sampling rate : 48.0 KHz
Resolution : 16 bits
Stream size : 103 MiB
Writing library : LAME3.97
Encoding settings : CBR

Thanks to Kuthumi!

related torrents

Torrent name

health leech seeds Size

Tea With Terrorists

0 0 4.31 MB 0
 

comments (0)

Main Menu