Drama

Footloose (1984) DVDrip MULTISUBS

  • Download 5x Faster
  • Download torrent
  • Direct Download
  • Rate this torrent +  |  -
Footloose (1984) DVDrip MULTISUBS

Anonymous and Free Direct Download


Torrent info

Name:Footloose (1984) DVDrip MULTISUBS

Total Size: 715.00 MB

Magnet: Magnet Link

Seeds: 0

Leechers: 0

Stream: Watch Online @ Movie4u

Last Updated: 2011-08-28 08:15:37 (Update Now)

Torrent added: 2008-10-24 12:35:50



VPN For Torrents

Torrent Files List


Footloose (1984) Kevin Bacon + Chris Penn (DVDrip,MULTISUBS)_Kuth.avi (Size: 715.00 MB) (Files: 27)

 Footloose (1984) Kevin Bacon + Chris Penn (DVDrip,MULTISUBS)_Kuth.avi

694.66 MB

 Info about this release.txt

4.80 KB

 Optional subtitles

  Arabic.rar

907.49 KB

  Bulgarski.rar

746.19 KB

  Cestina.rar

961.57 KB

  Dansk.rar

729.20 KB

  Deutsch.rar

866.00 KB

  English (ordinary).rar

915.17 KB

  English for the hearing impaired.rar

1.11 MB

  Espanol.rar

891.81 KB

  Francais.rar

780.04 KB

  Greek.rar

1.00 MB

  Hebrew.rar

738.58 KB

  Hrvatski.rar

936.96 KB

  Islenska.rar

963.36 KB

  Italiano.rar

870.05 KB

  Magyar.rar

964.98 KB

  Nederlands.rar

697.59 KB

  Norsk (Bokmål).rar

765.63 KB

  Notes on subtitle files and burning of discs.txt

2.08 KB

  Polszczyzna.rar

870.97 KB

  Portuges.rar

898.58 KB

  Romania.rar

908.37 KB

  Slovenian.rar

811.49 KB

  Suomenkielinen.rar

818.85 KB

  Svenska.rar

706.48 KB

  Turkish.rar

902.15 KB
 

Announce URL:

Torrent description

Footloose (1984)

Optional subtitles in separate idx/sub files:
Arabic, Bulgarian, Croatian (Hrvatski), Czech, Danish, Dutch, English (ordinary), English for the hearing impaired, Finnish, French, German, Greek, Hebrew, Hungarian, Icelandic, Italian, Norwegian, Polish, Portugese, Romanian, Slovanian, Spanish, Swedish, Turkish

Classic with Kevin Bacon (then 26) as a good dancer in one of his first feature films. Also memorable for showing Chris Penn (then 22) as a young, fit man; Sean Penn's younger brother died in 2006.

Widescreen 720x384, surprisingly good stereo sound for a 1984 production.
Burn tested, runs well in both my standalone DivX player.

This is an improved rip of the torrent I uploaded in May 2008. The film turned out to be so popular that I thought it deserves a better rip with all available subtitles. The old rip was just 528x304 pixels.

MediaInfo analysis of this new rip:

Format/Info : Audio Video Interleave
File size : 695 MiB
Duration : 1h 42mn
Overal bit rate : 945 Kbps

Video
Format : MPEG-4 Visual
Format profile : Streaming [email protected]
Format settings, BVOP : Yes
Format settings, QPel : No
Format settings, GMC : No warppoints
Format settings, Matrix : Default
Muxing mode : Packet Bitstream
Codec ID : XVID
Codec ID/Hint : XviD
Duration : 1h 42mn
Bit rate : 807 Kbps
Width : 720 pixels
Height : 384 pixels
Display aspect ratio : 1.875
Frame rate : 25.000 fps
Resolution : 8 bits
Colorimetry : 4:2:0
Scan type : Progressive
Bits/(Pixel*Frame) : 0.117
Stream size : 593 MiB
Writing library : XviD 1.2.0.dev47 (UTC 2006-11-01)

Audio
Format : MPEG Audio
Format version : Version 1
Format profile : Layer 3
Codec ID : 55
Codec ID/Hint : MP3
Duration : 1h 42mn
Bit rate mode : Constant
Bit rate : 128 Kbps
Minimum bit rate : 128 Kbps
Channel(s) : 2 channels
Sampling rate : 48.0 KHz
Resolution : 16 bits
Stream size : 94.1 MiB
Writing library : LAME3.97
Encoding settings : CBR

Source: PAL native 7 GiB (note that PAL/NTSC will give no problems for avi files).

Cover image

Thanks to Kuthumi!

related torrents

Torrent name

health leech seeds Size

Footloose (1984) avi avi

0 1 681.00 MB 0

Footloose (1984) (vcd)

0 1 987.00 MB 0
 


comments (0)

Main Menu