Comedy

Stark Raving Mad DVDRip 607MB AVI ENG

  • Download 5x Faster
  • Download torrent
  • Direct Download
  • Rate this torrent +  |  -
Stark Raving Mad DVDRip 607MB AVI ENG

Anonymous and Free Direct Download


Torrent info

Name:Stark Raving Mad DVDRip 607MB AVI ENG

Total Size: 607.37 MB

Magnet: Magnet Link

Seeds: 0

Leechers: 0

Stream: Watch Online @ Movie4u

Last Updated: 2012-02-13 13:05:29 (Update Now)

Torrent added: 2008-07-08 12:37:02



VPN For Torrents

Torrent Files List


INFO.txt (Size: 607.37 MB) (Files: 3)

 INFO.txt

2.81 KB

 Stark raving mad - DVDRip - Eng.avi

607.37 MB

 Torrent_downloaded_from_Demonoid.com.txt

0.05 KB
 

Announce URL:

Torrent description

206Andy206



IMDB User Rating: 6.3/10 (1,668 votes)

Genre: Comedy | Crime

Tagline: It's all about being in the wrong place at the right time.

Plot: A crook quietly plots his revenge against the boss who murdered his brother while working for him.

IMDB Link: http://uk.imdb.com/title/tt0286152/





General
Complete name : Stark raving mad - DVDRip - Eng.avi
Format : AVI
Format/Info : Audio Video Interleave
File size : 607 MiB
Duration : 1h 36mn
Overal bit rate : 877 Kbps
Writing application : VirtualDubMod 1.5.4.1 (build 2178/release)
Writing library : VirtualDubMod build 2178/release
IAS1 : English

Video
Format : MPEG-4 Visual
Format profile : Streaming [email protected]
Format settings, BVOP : Yes
Format settings, QPel : No
Format settings, GMC : No warppoints
Format settings, Matrix : Default
Muxing mode : Packet Bitstream
Codec ID : XVID
Codec ID/Hint : XviD
Duration : 1h 36mn
Bit rate : 678 Kbps
Width : 608 pixels
Height : 336 pixels
Display aspect ratio : 16/9
Frame rate : 25.000 fps
Resolution : 8 bits
Colorimetry : 4:2:0
Scan type : Progressive
Bits/(Pixel*Frame) : 0.133
Stream size : 469 MiB (77%)
Writing library : XviD 1.2.0.dev47 (UTC 2006-11-01)

Audio
Format : MPEG Audio
Format version : Version 1
Format profile : Layer 3
Codec ID : 55
Codec ID/Hint : MP3
Duration : 1h 36mn
Bit rate mode : Constant
Bit rate : 192 Kbps
Minimum bit rate : 192 Kbps
Channel(s) : 2 channels
Sampling rate : 48.0 KHz
Resolution : 16 bits
Stream size : 133 MiB (22%)
Writing library : LAME3.97
Encoding settings : CBR


http://inferno.demonoid.com:3390/announce
http://tracker.bitreactor.to:2710/announce
http://tpb.tracker.thepiratebay.org:80/announce
http://open.tracker.thepiratebay.org:80/announce
http://tracker.torrent.to:2710/announce
http://tracker.to:2710/announce

HASH: D75D904CBB5A35A06CF8C2454464A369FEFAAA94

Please seed for as long as possible. Thanks.

related torrents

Torrent name

health leech seeds Size

Stark Raving Mad

0 0 2.00 GB 0
 


comments (0)

Main Menu