Drama

ATLANTIC CITY G S DVD RIP XVID ROHO

  • Download 5x Faster
  • Download torrent
  • Direct Download
  • Rate this torrent +  |  -
ATLANTIC CITY G S DVD RIP XVID ROHO

Anonymous and Free Direct Download 300GB+


Torrent info

Name:ATLANTIC CITY G S DVD RIP XVID ROHO

Total Size: 1.12 GB

Magnet: Magnet Link

Seeds: 1

Leechers: 3

Stream: Watch Online @ Movie4u

Last Updated: 2010-09-14 11:20:19 (Update Now)

Torrent added: 2008-10-23 10:51:14



VPN For Torrents

Torrent Files List


atladic city.avi (Size: 1.12 GB) (Files: 1)

 atladic city.avi

1.12 GB
 

Announce URL: http://open.tracker.thepiratebay.org/announce

Torrent description


Louis Malle
Burt Lancaster
Susan Sarandon
Michel Piccoli
Hollis McLaren
Robert Joy
Moses Znaimer
Robert Goulet
Al Waxman
Kate Reid
Angus MacInnes
Sean Sullivan
Wallace Shawn
Harvey Atkin
Norma Dell`Agnese
Louis Del Grande
John McCurry
Eleanor Beecroft
Cec Linder
Sean McCann
Vincent Glorioso
Adele Chatfield-Taylor
Tony Angelo
Sis Clark
Gennaro Consalvo
Lawrence McGuire
Ann Burns
Marie Burns
Jean Burns
Connie Collins
John Allmond
John J. Burns


Γενικ?
Πλ?ρες ?νομα atladic city.DVD RIP XVID [G.S] [ROHO]
Μορφοπο?ηση : AVI
Μορφοπο?ηση/Info : Audio Video Interleave
Μ?γεθος αρχε?ου : 1.12 GiB
Duration : 1h 40mn
Συνολικ? BitRate : 1588 Kbps
Εφαρμογ? εγγραφ?ς : FairUse Wizard - http://fairusewizard.com
Βιβλιοθ?κη κωδικοποιητ? : The best and REALLY easy backup tool

Video
Μορφοπο?ηση : MPEG-4 Visual
Format profile : Streaming [email protected]
Format settings, BVOP : Ναι
Format settings, QPel : ?χι
Format settings, GMC : No warpoints
Format settings, Matrix : Default
Muxing mode : Packet Bitstream
Codec ID : XVID
Codec ID/Hint : XviD
Duration : 1h 40mn
Ρυθμ?ς μετ?δοσης δεδομ?νων : 1323 Kbps
Πλ?τος : 608 εικονοστοιχε?α
?ψος : 432 εικονοστοιχε?α
Λ?γος εικ?νας : 1.407
Ρυθμ?ς αναν?ωσης πλαισ?ου : 25.000 fps
Αν?λυση : 8 bits
Colorimetry : 4:2:0
Scan type : Συνεχ?ς σ?ρωση
Bits/(Εικονοστοιχε?ο*Πλα?σιο) : 0.201
Stream size : 955 MiB
Βιβλιοθ?κη κωδικοποιητ? : XviD 1.2.0.dev47 (UTC 2006-11-01)

?χος
Μορφοπο?ηση : AC-3
Μορφοπο?ηση/Info : Audio Coding 3
Codec ID : 2000
Duration : 1h 40mn
Bit rate mode : Constant
Ρυθμ?ς μετ?δοσης δεδομ?νων : 256 Kbps
Καν?λι(α) : 2 καν?λια
Θ?σεις καναλι?ν : L R
Συχν?τητα δειγματοληψ?ας : 48.0 KHz
Stream size : 185 MiB

related torrents

Torrent name

health leech seeds Size
 


comments (0)

Main Menu