Thriller

Wicker Man Deutsch 2006 Xvid mnvv2 ws

  • Download 5x Faster
  • Download torrent
  • Direct Download
  • Rate this torrent +  |  -
Wicker Man Deutsch 2006 Xvid mnvv2 ws

Free and Direct Download with Usenet.nl 300GB+ free


Torrent info

Name:Wicker Man Deutsch 2006 Xvid mnvv2 ws

Total Size: 699.89 MB

Magnet: Magnet Link

Seeds: 0

Leechers: 0

Stream: Watch Online @ Movie4u

Last Updated: 2016-01-30 05:13:57 (Update Now)

Torrent added: 2008-10-21 12:38:57





Torrent Files List


Info.txt (Size: 699.89 MB) (Files: 3)

 Info.txt

3.85 KB

 t-44874-1.jpg

10.71 KB

 Wicker_man_xvid.avi

699.88 MB
 

tracker

leech seeds
 

Torrent description

Wicker.Man.Deutsch.2006.Xvid
Ein traumatisches Erlebnis verändert das Leben des Motorrad-Polizisten Edward Malus (Nicolas Cage). Als er auf dem Highway

Streife schiebt, zermalmt ein außer Kontrolle geratener Truck auf abschüssiger Strecke den Wagen einer Mutter und deren

Tochter, die beide im Auto verbrennen. Die nächsten Monate schluckt Edward fleißig Beruhigungsmittel, um sich zu betäuben und

den Schock zu verdrängen. Ein Hilferuf seiner Ex-Verlobten Willow (Kate Beahan) reißt den Cop aus der Lethargie. Ihre Tochter

Rowan (Erika-Shaye Gair) ist verschwunden - auf einer mysteriösen Insel namens Summersisle vor der Küste von Washington

State. Trotz der Warnungen seiner Kollegen macht sich Edward auf den Weg und findet etwas Sonderbares vor. Auf der völlig von

der Außenwelt isolierten Insel leben die Bewohner wie vor hundert Jahren, versorgen sich grtenteils selbst. Die Gemeinde

erweckt den Eindruck einer Sekte, die wenig hilfsbereit ist, als Edward Fragen stellt, um das vermisste Mädchen zu finden

Erscheinungsdatum: 02.11.2006
Source..: DVD
Format..: AVI
Codec: XviD
Formatinfos: 640x256, 25FPS
Videobitrate..: 953
Audiobitrate..: 116
Sprachen: German
Spieldauer.: 100min
FSK..: 16
Genre: Thriller
Groesse.: 700 MB

Format : AVI
Format/Info : Audio Video Interleave
Dateigre : 700 MiB
Duration : 1h 40min
Gesamte Bitrate : 976 Kbps
Verwendetes Programm : VirtualDubMod 1.5.4.1 (build 2178/release)
verwendete Encoder-Bibliothek : VirtualDubMod build 2178/release
IAS1 : Deutsch

Video
Format : MPEG-4 Visual
Format profile : Streaming [email protected]
Format settings, BVOP : Ja
Format settings, QPel : Nein
Format settings, GMC : No warpoints
Format settings, Matrix : Custom
Codec ID : XVID
Codec ID/Hint : XviD
Duration : 1h 40min
Bitrate : 849 Kbps
Breite : 640 Pixel
Höhe : 256 Pixel
Bildseitenverhältnis : 2.500
Bildwiederholungsrate : 25.000 FPS
Auflösung : 8 bits
Colorimetry : 4:2:0
Scan type : Progressive
Bits/(Pixel*Frame) : 0.207
Stream size : 609 MiB
verwendete Encoder-Bibliothek : XviD 1.2.0.dev47 (UTC 2006-11-01)

Audio
Format : MPEG Audio
Format version : Version 1
Format profile : Layer 3
Codec ID : 55
Codec ID/Hint : MP3
Duration : 1h 38min
Bitraten-Modus : Variable
Bitrate : 117 Kbps
Minimum bit rate : 128 Kbps
Kanäle : 2 Kanäle
Samplingrate : 48.0 KHz
Auflösung : 16 bits
Stream size : 81.8 MiB
verwendete Encoder-Bibliothek : LAME3.97
Kodierungseinstellungen : ABR

related torrents

Torrent name

health leech seeds Size
 

comments (0)

Main Menu