Horror

WT Blood Rayne 1 und 2 DVD Rip German Xvid

  • Download 5x Faster
  • Download torrent
  • Direct Download
  • Rate this torrent +  |  -
WT Blood Rayne 1 und 2 DVD Rip German Xvid

Anonymous and Direct Download 300GB+ free


Torrent info

Name:WT Blood Rayne 1 und 2 DVD Rip German Xvid

Total Size: 1.26 GB

Magnet: Magnet Link

Seeds: 2

Leechers: 0

Stream: Watch Online @ Movie4u

Last Updated: 2010-12-19 10:15:07 (Update Now)

Torrent added: 2008-10-20 12:40:49




Torrent Files List


Bloodrayne 2.avi (Size: 1.26 GB) (Files: 5)

 Bloodrayne 2.avi

698.60 MB

 Blood Rayne 1.avi

591.91 MB

 Blood.Rayne.1.und.2.DVD.Rip.German.Xvid.nfo

5.61 KB

 Cover

  Blood Rayne 1.jpg

10.76 KB

  Blood Rayne 2.jpg

15.21 KB
 

Announce URL: http://walhalla.webhop.net/announce.php?passkey=

Torrent description

Blood Rayne 1


Halb Mensch, halb Vampir ist die Daywalkerin Rayne auf der Mission, die Tyrannei der
Untoten zu beenden. Aus Transsylvanien verschlgt es die sexy Schlchterin in den
Wilden Westen. Ober-Vampir Billy the Kid lsst sich in Deliverance nieder, um nach
Fertigstellung der Eisenbahn von dort aus das ganze Land mit Vampiren zu bevlkern.
Doch er hat nicht mit der Gegenwehr von Sheriff Pat Garret (Michael Pare) gerechnet
und schon gar nicht mit der Daywalkerin. Ein blutiger Kampf entfacht, doch es darf
nur einen Sieger geben ...


Allgemein
Format : AVI
Format/Info : Audio Video Interleave
Dateigr▀e : 592 MiB
Duration : 1h 24min
Gesamte Bitrate : 979 Kbps
verwendete Encoder-Bibliothek : MPEG Mediator OpenDML AVI Plugin release

Video
Format : MPEG-4 Visual
Format settings, BVOP : Ja
Format settings, QPel : Nein
Format settings, GMC : No warppoints
Format settings, Matrix : Default
Muxing mode : Packet Bitstream
Codec ID : DX50
Codec ID/Hint : DivX 5
Duration : 1h 24min
Bitrate : 780 Kbps
Breite : 720 Pixel
Hhe : 416 Pixel
Bildseitenverhltnis : 16/9
Bildwiederholungsrate : 25.000 FPS
Auflsung : 8 bits
Colorimetry : 4:2:0
Scan type : Progressive
Bits/(Pixel*Frame) : 0.104
Stream size : 472 MiB (80)
verwendete Encoder-Bibliothek : DivX 6.8.2 (UTC 2008-05-15)

Audio
Format : MPEG Audio
Format version : Version 1
Format profile : Layer 3
Codec ID : 55
Codec ID/Hint : MP3
Duration : 1h 24min
Bitraten-Modus : Constant
Bitrate : 192 Kbps
Kanle : 2 Kanle
Samplingrate : 48.0 KHz
Auflsung : 16 bits
Stream size : 116 MiB (20)
Alignment : Split accross interleaves
Interleave, duration : 120 ms (3.00 video frames)




BloodRayne 2: Deliverance


Darsteller: Natassia Malthe, Zack Ward, Michael Par
Regisseur(e): Uwe Boll

Kommentar bei amazon dem ich mich anschliesse:
man kann von uwe boll halten was man will - aber eines ist sicher : er sorgt immer wieder
fr diskussionstoff und er polarisiert - entweder man mag seine arbeit oder man hasst sie.
ich mu▀ gestehen - ich mag sie.
mit bloodrayne deliverance schafft er es, teilweise wunderschne bilder in bester western
tradition und sehr wohl ansprechende szenen in hochglanzoptik mit naiven und unausgegorenen
dialogen - schlechter schnittechnik und billigeffekten zu vermischen. ich habe noch keinen
regiesseur gesehen der so "virtuos" talent und unvermgen in einem film vereinigen kann.
bei jedem werk von uwe boll das ich mir zu gemte gefhrt habe ist dies so und genau aus
diesem grund amsiert er und unterhlt er mich auf beste art und weise.

Wer sich darauf einlassen kann, auch mal einen "B-Movie" bzw. einem Film anzuschauen der
ein nicht alzu gro▀en Budget hatte...der soll sich diesen Film reinziehn!!!


Allgemein
Format : AVI
Format/Info : Audio Video Interleave
Dateigr▀e : 699 MiB
Duration : 1h 35min
Gesamte Bitrate : 1027 Kbps
Verwendetes Programm : VirtualDubMod 1.5.10.2 (build 2540/release)
verwendete Encoder-Bibliothek : VirtualDubMod build 2540/release

Video
Format : MPEG-4 Visual
Format profile : Streaming [email protected]
Format settings, BVOP : Ja
Format settings, QPel : Nein
Format settings, GMC : No warppoints
Format settings, Matrix : Default
Codec ID : XVID
Codec ID/Hint : XviD
Duration : 1h 35min
Bitrate : 890 Kbps
Breite : 576 Pixel
Hhe : 320 Pixel
Bildseitenverhltnis : 16/9
Bildwiederholungsrate : 25.000 FPS
Auflsung : 8 bits
Colorimetry : 4:2:0
Scan type : Progressive
Bits/(Pixel*Frame) : 0.193
Stream size : 606 MiB (87)
verwendete Encoder-Bibliothek : XviD 1.0.3 (UTC 2004-12-20)

Audio
Format : MPEG Audio
Format version : Version 1
Format profile : Layer 3
Codec ID : 55
Codec ID/Hint : MP3
Duration : 1h 35min
Bitraten-Modus : Variable
Bitrate : 124 Kbps
Nominal bit rate : 128 Kbps
Kanle : 2 Kanle
Samplingrate : 48.0 KHz
Auflsung : 16 bits
Stream size : 84.3 MiB (12)
Alignment : Aligned on interleaves
Interleave, duration : 24 ms (0.60 video frame)
Interleave, preload duration : 458 ms
verwendete Encoder-Bibliothek : LAME3.90.
Kodierungseinstellungen : ABR

related torrents

Torrent name

health leech seeds Size
 


comments (0)

Main Menu