Anime - Other

MÄUSE AN DER MACHT COMPLETE ADBT

  • Download 5x Faster
  • Download torrent
  • Direct Download
  • Rate this torrent +  |  -
MÄUSE AN DER MACHT COMPLETE ADBT

Free and Direct Download with Usenet 300GB+ free


Torrent info

Name:MÄUSE AN DER MACHT COMPLETE ADBT

Total Size: 2.96 GB

Magnet: Magnet Link

Seeds: 0

Leechers: 0

Stream: Watch Online @ Movie4u

Last Updated: 2015-09-09 08:45:47 (Update Now)

Torrent added: 2009-08-17 00:00:00




Torrent Files List


S01E01 - Von Menschen Und Mäusen.avi (Size: 2.96 GB) (Files: 13)

 S01E01 - Von Menschen Und Mäusen.avi

229.70 MB

 S01E02 - Kampf Im Untergrund.avi

233.11 MB

 S01E03 - Die Bestechungsaffäre.avi

233.04 MB

 S01E04 - Jammet Rüstet Auf.avi

233.12 MB

 S01E05 - Internationale Verbindungen.avi

233.07 MB

 S01E06 - Die Verhängnisvollen Pillen.avi

233.13 MB

 S01E07 - Die Bevölkerungsexplosion.avi

233.16 MB

 S01E08 - Das Waldabenteuer.avi

233.20 MB

 S01E09 - Feindesliebe.avi

233.06 MB

 S01E10 - Der Hungerstreik.avi

233.16 MB

 S01E11 - Angeklagt.avi

233.07 MB

 S01E12 - Der Kilowatt-Aufstand.avi

233.07 MB

 S01E13 - Jammets Große Liebe.avi

233.13 MB
 

tracker

leech seeds
 

Torrent description

MÄUSE AN DER MACHT -aTV- Xvid COMPLETE

USA 1992, 13 Folgen

Feldmaus Max zieht ins Weiße Haus ein. Nachdem seine Familie von Kammerjägern ausgerottet wurde, sucht
er in Washingtonein neues Zuhause. Das findet er an der Seite seiner kämpferischen Cousine Berkeley, der
Laborratte Muggle, dem draufgängerischen Jammet und zahlreicher anderer Artgenossen.
Während der amerikanische Präsident und seine First Lady in der Bel Etage logieren, tobt im Keller
inmitten all der Nager das wahre Leben. Die Feinde der 'Capitol Critters' sind die 2 Kater des
Präsidenten und ihre Streitgenossen, die Kakerlaken, im anderen Viertel des Kellers. Humorvoll und zum
Nachdenken anregend zugleich ist diese wunderbare Serie aus den Hanna-Barbera-Studios wirklich sehenswert.
'L.A. Law'-Macher Steven Bochco produzierte die pfiffige Zeichentrickserie, bei der Robert Alvarez Regie
führte. Regisseur Alvarez inszenierte Episoden der preisgekrönten Trickserien 'Gravedale High', 'Dexters
Labor' und 'Cow & Chicken'."


01. Von Mäusen und Menschen
02. Kampf im Untergrund
03. Die Bestechungsaffäre
04. Jammet rüstet auf
05. Internationale Verbindungen
06. Die verhängnisvollen Pillen
07. Die Bevölkerungsexplosion
08. Das Waldabenteuer
09. Feindesliebe
10. Der Hungerstreik
11. Angeklagt
12. Der Kilowatt-Aufstand
13. Jammets große Liebe

Vollständiger Name : C:Users3333DesktopMäuse an der Macht - Staffel 1 - aTV- XvidS01E01 - Von Menschen Und Mäusen.avi
Format : AVI
Format/Info : Audio Video Interleave
Dateigre : 230 MiB
Duration : 22min
Gesamte Bitrate : 1 402 Kbps
verwendete Encoder-Bibliothek : VirtualDub-MPEG2 build 18264/release

Video
Format : MPEG-4 Visual
Format settings, BVOP : Nein
Format settings, QPel : Nein
Format settings, GMC : No warppoints
Format settings, Matrix : Default
Codec ID : DX50
Codec ID/Hint : DivX 5
Duration : 22min
Bitrate : 1 264 Kbps
Breite : 720 Pixel
Höhe : 576 Pixel
Bildseitenverhältnis : 5/4
Bildwiederholungsrate : 25,000 FPS
Standard : PAL
Auflösung : 24 bits
Colorimetry : 4:2:0
Scan type : Progressive
Bits/(Pixel*Frame) : 0.122
Stream size : 207 MiB (90)
verwendete Encoder-Bibliothek : DivX 5.1.1 (Maupiti) (UTC 2003-11-19)

Audio
Format : MPEG Audio
Format version : Version 1
Format profile : Layer 3
Codec ID : 55
Codec ID/Hint : MP3
Duration : 22min
Bitraten-Modus : Constant
Bitrate : 128 Kbps
Kanäle : 2 Kanäle
Samplingrate : 48,0 KHz
Auflösung : 16 bits
Stream size : 21,0 MiB (9)
Alignment : Split accross interleaves
Interleave, duration : 40 ms (1,00 video frame)
Interleave, preload duration : 500 ms

Audio: deutsch

related torrents

Torrent name

health leech seeds Size
 

comments (0)

Main Menu