Classic

Beethoven Complete Piano Concertos (Pollini Abbado 1994) [email protected]

  • Download 5x Faster
  • Download torrent
  • Direct Download
  • Rate this torrent +  |  -

Torrent info

Name:Beethoven Complete Piano Concertos (Pollini Abbado 1994) [email protected]

Total Size: 653.95 MB

Magnet: Magnet Link

Seeds: 0

Leechers: 0

Stream: Watch Online @ Movie4u

Last Updated: 2017-04-10 22:58:01 (Update Now)

Torrent added: 2008-10-20 10:56:14



VPN For Torrents

Torrent Files List


Artwork (Size: 653.95 MB) (Files: 29)

 Artwork

  Back.jpg

780.70 KB

  Disc1.jpg

352.87 KB

  Disc2.jpg

368.00 KB

  Disc3.jpg

347.60 KB

  Front.jpg

559.51 KB

 CD1

  01 - [Op. 15] - I. Allegro con brio.flac

65.12 MB

  02 - [Op. 15] - II. Largo.flac

36.49 MB

  03 - [Op. 15] - III. Rondeau. Allegro [scherzando].flac

36.14 MB

  04 - [Op. 19] - I. Allegro con brio.flac

51.71 MB

  05 - [Op. 19] - II. Adagio.flac

28.87 MB

  06 - [Op. 19] - III. Rondeau. Molto allegro.flac

27.05 MB

  Piano Concertos no. 1 & 2.cue

1.16 KB

  Piano Concertos no. 1 & 2.log

2.61 KB

  Piano Concertos no. 1 & 2.m3u

0.66 KB

 CD2

  01 - [Op. 37] - I. Allegro con brio.flac

62.48 MB

  02 - [Op. 37] - II. Largo.flac

32.49 MB

  03 - [Op. 37] - III. Rondeau. Allegro.flac

39.27 MB

  04 - [Op. 58] - I. Allegro moderato.flac

66.43 MB

  05 - [Op. 58] - II. Andante con moto.flac

15.37 MB

  06 - [Op. 58] - III. Rondeau. Vivace.flac

41.17 MB

  Piano Concertos no. 3 & 4.cue

1.15 KB

  Piano Concertos no. 3 & 4.log

2.61 KB

  Piano Concertos no. 3 & 4.m3u

0.64 KB

 CD3

  01 - [Op. 73] - I. Allegro.flac

81.58 MB

  02 - [Op. 73] - II. Adagio un poco moto.flac

23.20 MB

  03 - [Op. 73] - III. Rondeau. Allegro.flac

44.22 MB

  Piano Concerto no. 5.cue

0.61 KB

  Piano Concerto no. 5.log

1.74 KB

  Piano Concerto no. 5.m3u

0.32 KB
 

tracker

leech seeds
 

Torrent description

latest films,appz,mp3 albums,B.A.R AND RNR MP3 COMPILATIONS,come join us @ WWW.THE-MONKEY-HOUSE.COM

EAC extraction logfile from 11. April 2005, 23:19 for CD
Ludwig van Beethoven / Piano Concertos no. 1 & 2 [Pollini - Abbado] - #1 of 3

Used drive : PLEXTOR CD-R PREMIUM Adapter: 1 ID: 0
Read mode : Secure with NO C2, accurate stream, disable cache
Read offset correction : 30
Overread into Lead-In and Lead-Out : Yes

Used output format : E:ProgrammiExact Audio Copy 0.95Encodersflac.exe (User Defined Encoder)
224 kBit/s
Additional command line options : -8 -V -T "artist=%a" -T "title=%t" -T "album=%g" -T "date=%y" -T "tracknumber=%n" -T "genre=%m" -T "comment=Exact Audio Copy 0.95 pb5 Secure Mode / FLAC q8 v. 1.1.2" %s

Other options :
Fill up missing offset samples with silence : Yes
Delete leading and trailing silent blocks : No
Installed external ASPI interface


Track 1
Filename D:SeedBeethoven - Complete Piano Concertos [Pollini - Abbado] [1994] (FLAC)Concertos no. 1 & 2?1 - [Op. 15] - I. Allegro con brio.wav

Pre-gap length 0:00:02.42

Peak level 72.1 %
Track quality 99.9 %
Test CRC 4DF7AA49
Copy CRC 4DF7AA49
Copy OK

Track 2
Filename D:SeedBeethoven - Complete Piano Concertos [Pollini - Abbado] [1994] (FLAC)Concertos no. 1 & 2?2 - [Op. 15] - II. Largo.wav

Peak level 46.9 %
Track quality 100.0 %
Test CRC 50501A5A
Copy CRC 50501A5A
Copy OK

Track 3
Filename D:SeedBeethoven - Complete Piano Concertos [Pollini - Abbado] [1994] (FLAC)Concertos no. 1 & 2?3 - [Op. 15] - III. Rondeau. Allegro [scherzando].wav

Peak level 99.3 %
Track quality 100.0 %
Test CRC 0E37D871
Copy CRC 0E37D871
Copy OK

Track 4
Filename D:SeedBeethoven - Complete Piano Concertos [Pollini - Abbado] [1994] (FLAC)Concertos no. 1 & 2?4 - [Op. 19] - I. Allegro con brio.wav

Pre-gap length 0:00:06.00

Peak level 62.4 %
Track quality 100.0 %
Test CRC D01E445D
Copy CRC D01E445D
Copy OK

Track 5
Filename D:SeedBeethoven - Complete Piano Concertos [Pollini - Abbado] [1994] (FLAC)Concertos no. 1 & 2?5 - [Op. 19] - II. Adagio.wav

Peak level 52.9 %
Track quality 99.9 %
Test CRC 8E244D50
Copy CRC 8E244D50
Copy OK

Track 6
Filename D:SeedBeethoven - Complete Piano Concertos [Pollini - Abbado] [1994] (FLAC)Concertos no. 1 & 2?6 - [Op. 19] - III. Rondeau. Molto allegro.wav

Peak level 98.4 %
Track quality 100.0 %
Test CRC 9D9B0DCC
Copy CRC 9D9B0DCC
Copy OK

No errors occured


End of status report
EAC extraction logfile from 14. April 2005, 1:17 for CD
Ludwig van Beethoven / Piano Concertos no. 3 & 4 [Pollini - Abbado] - Integrale #2 of 3

Used drive : PLEXTOR CD-R PREMIUM Adapter: 1 ID: 0
Read mode : Secure with NO C2, accurate stream, disable cache
Read offset correction : 30
Overread into Lead-In and Lead-Out : Yes

Used output format : E:ProgrammiExact Audio Copy 0.95Encodersflac.exe (User Defined Encoder)
224 kBit/s
Additional command line options : -8 -V -T "artist=%a" -T "title=%t" -T "album=%g" -T "date=%y" -T "tracknumber=%n" -T "genre=%m" -T "comment=Exact Audio Copy 0.95 pb5 Secure Mode / FLAC q8 v. 1.1.2" %s

Other options :
Fill up missing offset samples with silence : Yes
Delete leading and trailing silent blocks : No
Installed external ASPI interface


Track 1
Filename D:SeedBeethoven - Complete Piano Concertos [Pollini - Abbado] [1994] (FLAC)Concertos no. 3 & 4?1 - [Op. 37] - I. Allegro con brio.wav

Pre-gap length 0:00:02.42

Peak level 99.1 %
Track quality 100.0 %
Test CRC 9908359C
Copy CRC 9908359C
Copy OK

Track 2
Filename D:SeedBeethoven - Complete Piano Concertos [Pollini - Abbado] [1994] (FLAC)Concertos no. 3 & 4?2 - [Op. 37] - II. Largo.wav

Peak level 57.5 %
Track quality 99.9 %
Test CRC 9A854BAC
Copy CRC 9A854BAC
Copy OK

Track 3
Filename D:SeedBeethoven - Complete Piano Concertos [Pollini - Abbado] [1994] (FLAC)Concertos no. 3 & 4?3 - [Op. 37] - III. Rondeau. Allegro.wav

Peak level 95.8 %
Track quality 100.0 %
Test CRC B13CDF5E
Copy CRC B13CDF5E
Copy OK

Track 4
Filename D:SeedBeethoven - Complete Piano Concertos [Pollini - Abbado] [1994] (FLAC)Concertos no. 3 & 4?4 - [Op. 58] - I. Allegro moderato.wav

Pre-gap length 0:00:08.00

Peak level 88.4 %
Track quality 99.9 %
Test CRC 87C09910
Copy CRC 87C09910
Copy OK

Track 5
Filename D:SeedBeethoven - Complete Piano Concertos [Pollini - Abbado] [1994] (FLAC)Concertos no. 3 & 4?5 - [Op. 58] - II. Andante con moto.wav

Peak level 60.7 %
Track quality 100.0 %
Test CRC 0DF4FA2C
Copy CRC 0DF4FA2C
Copy OK

Track 6
Filename D:SeedBeethoven - Complete Piano Concertos [Pollini - Abbado] [1994] (FLAC)Concertos no. 3 & 4?6 - [Op. 58] - III. Rondeau. Vivace.wav

Peak level 93.2 %
Track quality 99.9 %
Test CRC D6C2CAAB
Copy CRC D6C2CAAB
Copy OK

No errors occured


End of status report

EAC extraction logfile from 14. April 2005, 0:46 for CD
Ludwig van Beethoven / Piano Concerto no. 5 [Pollini - Abbado] - Integrale #3 of 3

Used drive : PLEXTOR CD-R PREMIUM Adapter: 1 ID: 0
Read mode : Secure with NO C2, accurate stream, disable cache
Read offset correction : 30
Overread into Lead-In and Lead-Out : Yes

Used output format : E:ProgrammiExact Audio Copy 0.95Encodersflac.exe (User Defined Encoder)
224 kBit/s
Additional command line options : -8 -V -T "artist=%a" -T "title=%t" -T "album=%g" -T "date=%y" -T "tracknumber=%n" -T "genre=%m" -T "comment=Exact Audio Copy 0.95 pb5 Secure Mode / FLAC q8 v. 1.1.2" %s

Other options :
Fill up missing offset samples with silence : Yes
Delete leading and trailing silent blocks : No
Installed external ASPI interface


Track 1
Filename D:SeedBeethoven - Complete Piano Concertos [Pollini - Abbado] [1994] (FLAC)Concerto no. 5?1 - [Op. 73] - I. Allegro.wav

Pre-gap length 0:00:02.44

Peak level 93.1 %
Track quality 100.0 %
Test CRC A19B6C5B
Copy CRC A19B6C5B
Copy OK

Track 2
Filename D:SeedBeethoven - Complete Piano Concertos [Pollini - Abbado] [1994] (FLAC)Concerto no. 5?2 - [Op. 73] - II. Adagio un poco moto.wav

Peak level 41.6 %
Track quality 100.0 %
Test CRC B35090A9
Copy CRC B35090A9
Copy OK

Track 3
Filename D:SeedBeethoven - Complete Piano Concertos [Pollini - Abbado] [1994] (FLAC)Concerto no. 5?3 - [Op. 73] - III. Rondeau. Allegro.wav

Peak level 98.4 %
Track quality 99.9 %
Test CRC A324AC1A
Copy CRC A324AC1A
Copy OK

No errors occured


End of status report

related torrents

Torrent name

health leech seeds Size
 


comments (0)

Main Menu