Classic

Wolfgang Amadeus Mozart@

  • Download 5x Faster
  • Download torrent
  • Direct Download
  • Rate this torrent +  |  -
Wolfgang Amadeus Mozart@

Free and Direct Download with Usenet 300GB+ free


Torrent info

Name:Wolfgang Amadeus Mozart@

Total Size: 643.59 MB

Magnet: Magnet Link

Seeds: 0

Leechers: 0

Stream: Watch Online @ Movie4u

Last Updated: 2015-10-12 11:22:08 (Update Now)

Torrent added: 2008-10-20 10:55:47




Torrent Files List


Brendel- The Great Piano Concertos (CD2) (Size: 643.59 MB) (Files: 32)

 Brendel- The Great Piano Concertos (CD2)

  01 - Piano Concerto No. 23 in A - A-dur - en la majeur, KV. 488, II.Adagio.flac

25.79 MB

  01 - Piano Concerto No. 23 in A - A-dur - en la majeur, KV. 488, II.Adagio.sfv

3.44 KB

  02 - Piano Concerto No. 23 in A - A-dur - en la majeur, KV. 488, III.Allegro assai.flac

33.61 MB

  03 - Piano Concerto No. 21 in C - C-dur - en ut majeur, KV. 467, I.Allegro.flac

53.32 MB

  04 - Piano Concerto No. 21 in C - C-dur - en ut majeur, KV. 467, II.Andante.flac

23.39 MB

  05 - Piano Concerto No. 21 in C - C-dur - en ut majeur, KV. 467, III.Allegro vivace assai.flac

24.14 MB

  06 - Piano Concerto No. 24 in C minor- C-moll - en ut minor, KV. 491, I.Allegro.flac

57.81 MB

  07 - Piano Concerto No. 24 in C minor- C-moll - en ut minor, KV. 491, II.Larghetto.flac

27.74 MB

  08 - Piano Concerto No. 24 in C minor- C-moll - en ut minor, KV. 491, III.Allegretto.flac

37.53 MB

  09 - Rondo in A - A-dur - en la majeur, KV.386.flac

33.48 MB

  Brendel The Great Piano Concertos (CD2).cue

3.24 KB

  Wolfgang Amadeus Mozart - Brendel The Great Piano Concertos (CD2).log

5.58 KB

  Wolfgang Amadeus Mozart - Brendel The Great Piano Concertos (CD2).m3u

1.73 KB

 The Great Piano Concertos 1 (CD1)

  00. Brendel;Marriner;Academy of St. Martin-in-the-Fields - The Great Piano Concertos 1 (CD1).m3u

2.15 KB

  00. Brendel;Marriner;Academy of St. Martin-in-the-Fields - The Great Piano Concertos 1 (CD1).nfo

2.83 KB

  00. Brendel;Marriner;Academy of St. Martin-in-the-Fields - The Great Piano Concertos 1 (CD1).sfv

0.96 KB

  01 - Piano Concerto No.19 in F - F-dur - en fa majeur, KV.459, I.Allegro Vivace.flac

50.60 MB

  01 - Piano Concerto No.19 in F - F-dur - en fa majeur, KV.459, I.Allegro Vivace.sfv

3.54 KB

  02 - Piano Concerto No.19 in F - F-dur - en fa majeur, KV.459, II.Allegretto.flac

32.19 MB

  03 - Piano Concerto No.19 in F - F-dur - en fa majeur, KV.459, I.Allegro Assai.flac

31.00 MB

  04 - Piano Concerto No.20 in D Minor - d-moll - en ré mineur, KV.466, I.Allegro.flac

57.55 MB

  05 - Piano Concerto No.20 in D Minor - d-moll - en ré mineur, KV.466, II.Romance.flac

37.45 MB

  06 - Piano Concerto No.20 in D Minor - d-moll - en ré mineur, KV.466, III.Allegro Assai.flac

31.68 MB

  07 - Rondo in D - D-dur - en ré majeur, KV.382, I.Allegretto Grazioso.flac

21.88 MB

  08 - Rondo in D - D-dur - en ré majeur, KV.382, II.Adagio.flac

8.28 MB

  09 - Rondo in D - D-dur - en ré majeur, KV.382, III.Allegro.flac

8.35 MB

  10 - Piano Concerto No.23 in A - A-dur - en la majeur, KV.488, I.Allegro.flac

46.70 MB

  Brendel;Marriner;Academy of St. Martin-in-the-Fields - The Great Piano Concertos 1 (CD1).log

6.24 KB

  Brendel;Marriner;Academy of St. Martin-in-the-Fields - The Great Piano Concertos 1 (CD1).m3u

2.15 KB

  The Great Piano Concertos 1 (CD1).cue

4.02 KB

 img158.jpg

508.33 KB

 img159.jpg

562.87 KB
 

tracker

leech seeds
 

Torrent description

latest films,appz,mp3 albums,B.A.R AND RNR MP3 COMPILATIONS,come join us @ WWW.THE-MONKEY-HOUSE.COM

Exact Audio Copy V0.99 prebeta 4 from 23. January 2008

EAC extraction logfile from 19. October 2008, 12:38

Wolfgang Amadeus Mozart / Brendel: The Great Piano Concertos (CD2)

Used drive : TSSTcorpCDDVDW SN-S082H Adapter: 1 ID: 0

Read mode : Secure

Read offset correction : 6
Overread into Lead-In and Lead-Out : No
Fill up missing offset samples with silence : Yes
Delete leading and trailing silent blocks : No
Null samples used in CRC calculations : Yes
Used interface : Native Win32 interface for Win NT & 2000
Gap handling : Appended to previous track

Used output format : User Defined Encoder
Selected bitrate : 128 kBit/s
Quality : High
Add ID3 tag : No
Command line compressor : C:Program FilesFLACflac.exe
Additional command line options : -8 -V -T "artist=%a" -T "title=%t" -T "album=%g" -T "date=%y" -T "tracknumber=%n" -T "genre=%m" %s


TOC of the extracted CD

Track | Start | Length | Start sector | End sector
---------------------------------------------------------
1 | 0:00.33 | 6:53.00 | 33 | 31007
2 | 6:53.33 | 7:56.00 | 31008 | 66707
3 | 14:49.33 | 13:33.00 | 66708 | 127682
4 | 28:22.33 | 6:37.00 | 127683 | 157457
5 | 34:59.33 | 6:17.00 | 157458 | 185732
6 | 41:16.33 | 13:19.00 | 185733 | 245657
7 | 54:35.33 | 7:14.00 | 245658 | 278207
8 | 61:49.33 | 9:07.00 | 278208 | 319232
9 | 70:56.33 | 8:37.00 | 319233 | 358007


Track 1

Filename C:Documents and SettingsistaMy DocumentsMy MusicWolfgang Amadeus MozartBrendel- The Great Piano Concertos (CD2)?1 - Piano Concerto No. 23 in A - A-dur - en la majeur, KV. 488, II.Adagio.wav

Pre-gap length 0:00:02.33

Peak level 45.1 %
Test CRC 88B8EC92
Copy CRC 88B8EC92
Accurately ripped (confidence 3) [70BF22C3]
Copy OK

Track 2

Filename C:Documents and SettingsistaMy DocumentsMy MusicWolfgang Amadeus MozartBrendel- The Great Piano Concertos (CD2)?2 - Piano Concerto No. 23 in A - A-dur - en la majeur, KV. 488, III.Allegro assai.wav

Pre-gap length 0:00:03.00

Peak level 66.8 %
Test CRC A233D5CF
Copy CRC A233D5CF
Accurately ripped (confidence 3) [5C7C853B]
Copy OK

Track 3

Filename C:Documents and SettingsistaMy DocumentsMy MusicWolfgang Amadeus MozartBrendel- The Great Piano Concertos (CD2)?3 - Piano Concerto No. 21 in C - C-dur - en ut majeur, KV. 467, I.Allegro.wav

Pre-gap length 0:00:02.00

Timing problem 0:02:26

Peak level 84.1 %
Test CRC 7F18F335
Copy CRC 7F18F335
Accurately ripped (confidence 3) [28451DC1]
Copy finished

Track 4

Filename C:Documents and SettingsistaMy DocumentsMy MusicWolfgang Amadeus MozartBrendel- The Great Piano Concertos (CD2)?4 - Piano Concerto No. 21 in C - C-dur - en ut majeur, KV. 467, II.Andante.wav

Pre-gap length 0:00:05.00

Peak level 37.2 %
Test CRC F62A932A
Copy CRC F62A932A
Accurately ripped (confidence 3) [FFE78C2C]
Copy OK

Track 5

Filename C:Documents and SettingsistaMy DocumentsMy MusicWolfgang Amadeus MozartBrendel- The Great Piano Concertos (CD2)?5 - Piano Concerto No. 21 in C - C-dur - en ut majeur, KV. 467, III.Allegro vivace assai.wav

Pre-gap length 0:00:03.00

Timing problem 0:03:45

Peak level 86.6 %
Test CRC 03AEFDFA
Copy CRC 03AEFDFA
Accurately ripped (confidence 3) [DDFB13FB]
Copy finished

Track 6

Filename C:Documents and SettingsistaMy DocumentsMy MusicWolfgang Amadeus MozartBrendel- The Great Piano Concertos (CD2)?6 - Piano Concerto No. 24 in C minor- C-moll - en ut minor, KV. 491, I.Allegro.wav

Pre-gap length 0:00:04.00

Timing problem 0:03:33

Peak level 82.7 %
Test CRC D82771DA
Copy CRC D82771DA
Accurately ripped (confidence 3) [5F364FF6]
Copy finished

Track 7

Filename C:Documents and SettingsistaMy DocumentsMy MusicWolfgang Amadeus MozartBrendel- The Great Piano Concertos (CD2)?7 - Piano Concerto No. 24 in C minor- C-moll - en ut minor, KV. 491, II.Larghetto.wav

Pre-gap length 0:00:04.00

Timing problem 0:03:07
Timing problem 0:04:04

Peak level 40.7 %
Test CRC 1FF319D3
Copy CRC 1FF319D3
Accurately ripped (confidence 3) [0B13E18E]
Copy finished

Track 8

Filename C:Documents and SettingsistaMy DocumentsMy MusicWolfgang Amadeus MozartBrendel- The Great Piano Concertos (CD2)?8 - Piano Concerto No. 24 in C minor- C-moll - en ut minor, KV. 491, III.Allegretto.wav

Timing problem 0:03:49

Peak level 99.9 %
Test CRC A259679E
Copy CRC A259679E
Accurately ripped (confidence 3) [9BA5D1CE]
Copy finished

Track 9

Filename C:Documents and SettingsistaMy DocumentsMy MusicWolfgang Amadeus MozartBrendel- The Great Piano Concertos (CD2)?9 - Rondo in A - A-dur - en la majeur, KV.386.wav

Pre-gap length 0:00:04.00

Timing problem 0:03:49

Peak level 74.4 %
Test CRC 391A2D13
Copy CRC 391A2D13
Accurately ripped (confidence 3) [E5914BF9]
Copy finished


All tracks accurately ripped

No errors occurred

End of status report
Exact Audio Copy V0.99 prebeta 4 from 23. January 2008

EAC extraction logfile from 19. October 2008, 11:57

Brendel;Marriner;Academy of St. Martin-in-the-Fields / The Great Piano Concertos 1 (CD1)

Used drive : TSSTcorpCDDVDW SN-S082H Adapter: 1 ID: 0

Read mode : Secure

Read offset correction : 6
Overread into Lead-In and Lead-Out : No
Fill up missing offset samples with silence : Yes
Delete leading and trailing silent blocks : No
Null samples used in CRC calculations : Yes
Used interface : Native Win32 interface for Win NT & 2000
Gap handling : Appended to previous track

Used output format : User Defined Encoder
Selected bitrate : 128 kBit/s
Quality : High
Add ID3 tag : No
Command line compressor : C:Program FilesFLACflac.exe
Additional command line options : -8 -V -T "artist=%a" -T "title=%t" -T "album=%g" -T "date=%y" -T "tracknumber=%n" -T "genre=%m" %s


TOC of the extracted CD

Track | Start | Length | Start sector | End sector
---------------------------------------------------------
1 | 0:00.33 | 12:20.00 | 33 | 55532
2 | 12:20.33 | 8:21.00 | 55533 | 93107
3 | 20:41.33 | 7:24.00 | 93108 | 126407
4 | 28:05.33 | 13:32.00 | 126408 | 187307
5 | 41:37.33 | 9:16.00 | 187308 | 229007
6 | 50:53.33 | 7:18.00 | 229008 | 261857
7 | 58:11.33 | 5:46.37 | 261858 | 287844
8 | 63:57.70 | 2:18.00 | 287845 | 298194
9 | 66:15.70 | 1:59.38 | 298195 | 307157
10 | 68:15.33 | 11:08.00 | 307158 | 357257


Track 1

Filename C:Documents and SettingsistaMy DocumentsMy MusicBrendel;Marriner;Academy of St. Martin-in-the-FieldsThe Great Piano Concertos 1 (CD1)?1 - Piano Concerto No.19 in F - F-dur - en fa majeur, KV.459, I.Allegro Vivace.wav

Pre-gap length 0:00:02.33

Peak level 57.6 %
Test CRC 30B195E3
Copy CRC 30B195E3
Accurately ripped (confidence 4) [020F01AF]
Copy OK

Track 2

Filename C:Documents and SettingsistaMy DocumentsMy MusicBrendel;Marriner;Academy of St. Martin-in-the-FieldsThe Great Piano Concertos 1 (CD1)?2 - Piano Concerto No.19 in F - F-dur - en fa majeur, KV.459, II.Allegretto.wav

Pre-gap length 0:00:03.00

Peak level 48.3 %
Test CRC 34E3D42F
Copy CRC 34E3D42F
Accurately ripped (confidence 4) [3E0FC2E8]
Copy OK

Track 3

Filename C:Documents and SettingsistaMy DocumentsMy MusicBrendel;Marriner;Academy of St. Martin-in-the-FieldsThe Great Piano Concertos 1 (CD1)?3 - Piano Concerto No.19 in F - F-dur - en fa majeur, KV.459, I.Allegro Assai.wav

Pre-gap length 0:00:02.00

Timing problem 0:02:23

Peak level 64.1 %
Test CRC BA53CD2B
Copy CRC BA53CD2B
Accurately ripped (confidence 4) [6ADCAF59]
Copy finished

Track 4

Filename C:Documents and SettingsistaMy DocumentsMy MusicBrendel;Marriner;Academy of St. Martin-in-the-FieldsThe Great Piano Concertos 1 (CD1)?4 - Piano Concerto No.20 in D Minor - d-moll - en ré mineur, KV.466, I.Allegro.wav

Pre-gap length 0:00:04.00

Timing problem 0:02:26

Peak level 81.5 %
Test CRC 97EB4F76
Copy CRC 97EB4F76
Accurately ripped (confidence 4) [E9B9634C]
Copy finished

Track 5

Filename C:Documents and SettingsistaMy DocumentsMy MusicBrendel;Marriner;Academy of St. Martin-in-the-FieldsThe Great Piano Concertos 1 (CD1)?5 - Piano Concerto No.20 in D Minor - d-moll - en ré mineur, KV.466, II.Romance.wav

Pre-gap length 0:00:04.00

Timing problem 0:03:01

Peak level 68.7 %
Test CRC 903287B2
Copy CRC 903287B2
Accurately ripped (confidence 4) [CE4CFAEE]
Copy finished

Track 6

Filename C:Documents and SettingsistaMy DocumentsMy MusicBrendel;Marriner;Academy of St. Martin-in-the-FieldsThe Great Piano Concertos 1 (CD1)?6 - Piano Concerto No.20 in D Minor - d-moll - en ré mineur, KV.466, III.Allegro Assai.wav

Pre-gap length 0:00:02.00

Timing problem 0:03:56
Timing problem 0:04:54

Peak level 95.2 %
Test CRC E1C26E72
Copy CRC E1C26E72
Accurately ripped (confidence 4) [FAD080E8]
Copy finished

Track 7

Filename C:Documents and SettingsistaMy DocumentsMy MusicBrendel;Marriner;Academy of St. Martin-in-the-FieldsThe Great Piano Concertos 1 (CD1)?7 - Rondo in D - D-dur - en ré majeur, KV.382, I.Allegretto Grazioso.wav

Pre-gap length 0:00:04.00

Timing problem 0:05:12

Peak level 82.8 %
Test CRC 8BA073CF
Copy CRC 8BA073CF
Accurately ripped (confidence 4) [E246D93F]
Copy finished

Track 8

Filename C:Documents and SettingsistaMy DocumentsMy MusicBrendel;Marriner;Academy of St. Martin-in-the-FieldsThe Great Piano Concertos 1 (CD1)?8 - Rondo in D - D-dur - en ré majeur, KV.382, II.Adagio.wav

Timing problem 0:00:28

Peak level 47.0 %
Test CRC 1F297CAE
Copy CRC 1F297CAE
Accurately ripped (confidence 4) [859FFF1F]
Copy finished

Track 9

Filename C:Documents and SettingsistaMy DocumentsMy MusicBrendel;Marriner;Academy of St. Martin-in-the-FieldsThe Great Piano Concertos 1 (CD1)?9 - Rondo in D - D-dur - en ré majeur, KV.382, III.Allegro.wav

Peak level 94.2 %
Test CRC 86027ECD
Copy CRC 86027ECD
Accurately ripped (confidence 4) [BEE58FDD]
Copy OK

Track 10

Filename C:Documents and SettingsistaMy DocumentsMy MusicBrendel;Marriner;Academy of St. Martin-in-the-FieldsThe Great Piano Concertos 1 (CD1)10 - Piano Concerto No.23 in A - A-dur - en la majeur, KV.488, I.Allegro.wav

Pre-gap length 0:00:04.00

Timing problem 0:04:05

Peak level 59.1 %
Test CRC 48E95148
Copy CRC 48E95148
Accurately ripped (confidence 4) [3DDD1CB9]
Copy finished


All tracks accurately ripped

No errors occurred

End of status report
Exact Audio Copy V0.99 prebeta 4 from 23. January 2008

EAC extraction logfile from 19. October 2008, 11:57

Brendel;Marriner;Academy of St. Martin-in-the-Fields / The Great Piano Concertos 1 (CD1)

Used drive : TSSTcorpCDDVDW SN-S082H Adapter: 1 ID: 0

Read mode : Secure

Read offset correction : 6
Overread into Lead-In and Lead-Out : No
Fill up missing offset samples with silence : Yes
Delete leading and trailing silent blocks : No
Null samples used in CRC calculations : Yes
Used interface : Native Win32 interface for Win NT & 2000
Gap handling : Appended to previous track

Used output format : User Defined Encoder
Selected bitrate : 128 kBit/s
Quality : High
Add ID3 tag : No
Command line compressor : C:Program FilesFLACflac.exe
Additional command line options : -8 -V -T "artist=%a" -T "title=%t" -T "album=%g" -T "date=%y" -T "tracknumber=%n" -T "genre=%m" %s


TOC of the extracted CD

Track | Start | Length | Start sector | End sector
---------------------------------------------------------
1 | 0:00.33 | 12:20.00 | 33 | 55532
2 | 12:20.33 | 8:21.00 | 55533 | 93107
3 | 20:41.33 | 7:24.00 | 93108 | 126407
4 | 28:05.33 | 13:32.00 | 126408 | 187307
5 | 41:37.33 | 9:16.00 | 187308 | 229007
6 | 50:53.33 | 7:18.00 | 229008 | 261857
7 | 58:11.33 | 5:46.37 | 261858 | 287844
8 | 63:57.70 | 2:18.00 | 287845 | 298194
9 | 66:15.70 | 1:59.38 | 298195 | 307157
10 | 68:15.33 | 11:08.00 | 307158 | 357257


Track 1

Filename C:Documents and SettingsistaMy DocumentsMy MusicBrendel;Marriner;Academy of St. Martin-in-the-FieldsThe Great Piano Concertos 1 (CD1)?1 - Piano Concerto No.19 in F - F-dur - en fa majeur, KV.459, I.Allegro Vivace.wav

Pre-gap length 0:00:02.33

Peak level 57.6 %
Test CRC 30B195E3
Copy CRC 30B195E3
Accurately ripped (confidence 4) [020F01AF]
Copy OK

Track 2

Filename C:Documents and SettingsistaMy DocumentsMy MusicBrendel;Marriner;Academy of St. Martin-in-the-FieldsThe Great Piano Concertos 1 (CD1)?2 - Piano Concerto No.19 in F - F-dur - en fa majeur, KV.459, II.Allegretto.wav

Pre-gap length 0:00:03.00

Peak level 48.3 %
Test CRC 34E3D42F
Copy CRC 34E3D42F
Accurately ripped (confidence 4) [3E0FC2E8]
Copy OK

Track 3

Filename C:Documents and SettingsistaMy DocumentsMy MusicBrendel;Marriner;Academy of St. Martin-in-the-FieldsThe Great Piano Concertos 1 (CD1)?3 - Piano Concerto No.19 in F - F-dur - en fa majeur, KV.459, I.Allegro Assai.wav

Pre-gap length 0:00:02.00

Timing problem 0:02:23

Peak level 64.1 %
Test CRC BA53CD2B
Copy CRC BA53CD2B
Accurately ripped (confidence 4) [6ADCAF59]
Copy finished

Track 4

Filename C:Documents and SettingsistaMy DocumentsMy MusicBrendel;Marriner;Academy of St. Martin-in-the-FieldsThe Great Piano Concertos 1 (CD1)?4 - Piano Concerto No.20 in D Minor - d-moll - en ré mineur, KV.466, I.Allegro.wav

Pre-gap length 0:00:04.00

Timing problem 0:02:26

Peak level 81.5 %
Test CRC 97EB4F76
Copy CRC 97EB4F76
Accurately ripped (confidence 4) [E9B9634C]
Copy finished

Track 5

Filename C:Documents and SettingsistaMy DocumentsMy MusicBrendel;Marriner;Academy of St. Martin-in-the-FieldsThe Great Piano Concertos 1 (CD1)?5 - Piano Concerto No.20 in D Minor - d-moll - en ré mineur, KV.466, II.Romance.wav

Pre-gap length 0:00:04.00

Timing problem 0:03:01

Peak level 68.7 %
Test CRC 903287B2
Copy CRC 903287B2
Accurately ripped (confidence 4) [CE4CFAEE]
Copy finished

Track 6

Filename C:Documents and SettingsistaMy DocumentsMy MusicBrendel;Marriner;Academy of St. Martin-in-the-FieldsThe Great Piano Concertos 1 (CD1)?6 - Piano Concerto No.20 in D Minor - d-moll - en ré mineur, KV.466, III.Allegro Assai.wav

Pre-gap length 0:00:02.00

Timing problem 0:03:56
Timing problem 0:04:54

Peak level 95.2 %
Test CRC E1C26E72
Copy CRC E1C26E72
Accurately ripped (confidence 4) [FAD080E8]
Copy finished

Track 7

Filename C:Documents and SettingsistaMy DocumentsMy MusicBrendel;Marriner;Academy of St. Martin-in-the-FieldsThe Great Piano Concertos 1 (CD1)?7 - Rondo in D - D-dur - en ré majeur, KV.382, I.Allegretto Grazioso.wav

Pre-gap length 0:00:04.00

Timing problem 0:05:12

Peak level 82.8 %
Test CRC 8BA073CF
Copy CRC 8BA073CF
Accurately ripped (confidence 4) [E246D93F]
Copy finished

Track 8

Filename C:Documents and SettingsistaMy DocumentsMy MusicBrendel;Marriner;Academy of St. Martin-in-the-FieldsThe Great Piano Concertos 1 (CD1)?8 - Rondo in D - D-dur - en ré majeur, KV.382, II.Adagio.wav

Timing problem 0:00:28

Peak level 47.0 %
Test CRC 1F297CAE
Copy CRC 1F297CAE
Accurately ripped (confidence 4) [859FFF1F]
Copy finished

Track 9

Filename C:Documents and SettingsistaMy DocumentsMy MusicBrendel;Marriner;Academy of St. Martin-in-the-FieldsThe Great Piano Concertos 1 (CD1)?9 - Rondo in D - D-dur - en ré majeur, KV.382, III.Allegro.wav

Peak level 94.2 %
Test CRC 86027ECD
Copy CRC 86027ECD
Accurately ripped (confidence 4) [BEE58FDD]
Copy OK

Track 10

Filename C:Documents and SettingsistaMy DocumentsMy MusicBrendel;Marriner;Academy of St. Martin-in-the-FieldsThe Great Piano Concertos 1 (CD1)10 - Piano Concerto No.23 in A - A-dur - en la majeur, KV.488, I.Allegro.wav

Pre-gap length 0:00:04.00

Timing problem 0:04:05

Peak level 59.1 %
Test CRC 48E95148
Copy CRC 48E95148
Accurately ripped (confidence 4) [3DDD1CB9]
Copy finished


All tracks accurately ripped

No errors occurred

End of status report

related torrents

Torrent name

health leech seeds Size
 

comments (0)

Main Menu