Horror

Children Shouldnt Play With Dead Things 1972 DVDRip XviD KooKoo 1337x

  • Download 5x Faster
  • Download torrent
  • Direct Download
  • Rate this torrent +  |  -
Children Shouldnt Play With Dead Things 1972 DVDRip XviD KooKoo 1337x

Free and Direct Download with Usenet.nl 300GB+ free


Torrent info

Name:Children Shouldnt Play With Dead Things 1972 DVDRip XviD KooKoo 1337x

Total Size: 700.94 MB

Magnet: Magnet Link

Seeds: 0

Leechers: 0

Stream: Watch Online @ Movie4u

Last Updated: 2011-11-09 12:41:20 (Update Now)

Torrent added: 2008-10-20 08:34:25





Torrent Files List


1337x.txt (Size: 700.94 MB) (Files: 3)

 1337x.txt

0.02 KB

 Children.Shouldnt.Play.With.Dead.Things.1972.DVDRip.XviD-KooKoo.avi

700.93 MB

 KooKoo.nfo

3.82 KB
 

Announce URL:

Torrent description

--KooKoo--------------------------------------------------------------------



Movie Name: Children Shouldn't Play With Dead Things
Genre: Horror
Release Date: 1972
Country: U.S.A
Certification: R
IMDB Link: http://www.imdb.com/title/tt0068370/
----------------------------------------------------------------------------
Plot:

The Set-Up
Five young kinky actors and their artistic director come to a desolate
and nearly forgotten burial island, complete with a morbid history of Murder
,rape,Curses and Demons. Alan, the brilliant but bizarre Director of the
company, has brought them to this foreboding place to dabble in witchcraft;
specifically to dig up a fresh corpse and use it in a ritual ceremony which
is supposed to raise the dead from their graves.
The Pay-Off:
It seems as though Alan has really gathered his "children" here, only to
play a practical joke on them and then to party the rest of the night away.
However, the joke's on Alan. His bizarre ritual ceremony really does raise
the dead from their graves...only they're in no mood to party.
----------------------------------------------------------------------------


Rip Details:

Children.Shouldnt.Play.With.Dead.Things.1972.DVDRip.XviD-KooKoo


Format : AVI
Format/Info : Audio Video Interleave
File size : 701 MiB
Duration : 1h 26mn
Overall bit rate : 1131 Kbps
Writing application : VirtualDubMod 1.5.10.2 (build 2540/release)
Writing library : VirtualDubMod build 2540/release
Copyright : Ripped By KooKoo

Video
Format : MPEG-4 Visual
Format profile : Streaming [email protected]
Format settings, BVOP : Yes
Format settings, QPel : No
Format settings, GMC : No warppoints
Format settings, Matrix : Default
Muxing mode : Packet Bitstream
Codec ID : XVID
Codec ID/Hint : XviD
Duration : 1h 26mn
Bit rate : 994 Kbps
Width : 608 pixels
Height : 336 pixels
Display aspect ratio : 16/9
Frame rate : 23.976 fps
Resolution : 8 bits
Colorimetry : 4:2:0
Scan type : Progressive
Bits/(Pixel*Frame) : 0.203
Stream size : 616 MiB (88%)
Writing library : XviD 1.2.0.dev47 (UTC 2006-11-01)

Audio
Format : MPEG Audio
Format version : Version 1
Format profile : Layer 3
Codec ID : 55
Codec ID/Hint : MP3
Duration : 1h 26mn
Bit rate mode : Constant
Bit rate : 128 Kbps
Minimum bit rate : 128 Kbps
Channel(s) : 2 channels
Sampling rate : 48.0 KHz
Resolution : 16 bits
Stream size : 79.3 MiB (11%)
Alignment : Aligned on interleaves
Interleave, duration : 42 ms (1.00 video frame)
Interleave, preload duration : 504 ms
Writing library : LAME3.97
Encoding settings : CBR

----------------------------------------------------------------------------

Additional Details:

Source: DVD/NTSC
Language: English
Subtitles: No
Stand alone compatible: Yes
Burn Tested: Yes

----------------------------------------------------------------------------

Greets to me, myself, and I

FUCK CONFORMITY! LIVE BY YOUR OWN SET OF RULES!

related torrents

Torrent name

health leech seeds Size
 

comments (0)

Main Menu