Anime - Other

Kinos Journey 1 13 COMPLETE ADBT

  • Download 5x Faster
  • Download torrent
  • Direct Download
  • Rate this torrent +  |  -
Kinos Journey 1 13 COMPLETE ADBT

Anonymous and Free Direct Download 300GB+


Torrent info

Name:Kinos Journey 1 13 COMPLETE ADBT

Total Size: 3.17 GB

Magnet: Magnet Link

Seeds: 1

Leechers: 5

Stream: Watch Online @ Movie4u

Last Updated: 2010-10-07 12:56:54 (Update Now)

Torrent added: 2008-10-18 07:48:54



VPN For Torrents

Torrent Files List


Kino's Journey - 01 - In der Mitte der Wüste - Anfängerglück.avi (Size: 2.93 GB) (Files: 12)

 Kino's Journey - 01 - In der Mitte der Wüste - Anfängerglück.avi

250.00 MB

 Kino's Journey - 02 - Vom Fressen und Gefressen werden.avi

249.97 MB

 Kino's Journey - 03 - Land der Prophezeigungen - Wir kennen die Zukunft (Nicht).avi

250.01 MB

 Kino's Journey - 04 - Land der Erwachsenen - Naturgegebenes Recht.avi

249.99 MB

 Kino's Journey - 05 - Auf den Schienen.avi

249.99 MB

 Kino's Journey - 06 - Kolloseum (Teil 1).avi

249.91 MB

 Kino's Journey - 07 - Kolloseum (Teil 2).avi

250.01 MB

 Kino's Journey - 08 - Land der Magier.avi

250.00 MB

 Kino's Journey - 09 - Land der Bücher.avi

250.00 MB

 Kino's Journey - 10 - Das Puppenhaus.avi

250.01 MB

 Kino's Journey - 12 - Ein friedliebendes Land .avi

250.01 MB

 Kino's Journey - 13 - Ein gastfreundliches Land.avi

250.01 MB
 

Announce URL: http://adbt.ath.cx/announce0000000000000000.php

Torrent description

Kino's Journey 1-13 - COMPLETE - DVDRip - Xvid - Deutsch


Kino und sein Motorrad Hermes bereisen gemeinsam die Welt. Ihr Grundsatz ist es, nicht länger als
drei Tage an einem Ort zu bleiben. Während ihrer Reise geraten sie immer wieder in
anrührende, verzweifelte und auch gefährliche Situationen, die sie stets um eine Erfahrung reicher machen.

Sehr nachdenkliches Anime, das auf den Romanen von Sigsawa Keiichi beruht und sehr leise daherkommt.
Menschliches Leid wird behutsam und erklärend dargestellt, nicht reißerisch oder sensationslüstern.
Durch den oft fehlenden Einsatz von Hintergrundmusik wird der ernste Charakter der Serie noch stark betont.

Vollständiger Name : G:AnimesKinos JourneyKino's Journey - 01 - In der Mitte der Wüste - Anfängerglück.avi
Format : AVI
Format/Info : Audio Video Interleave
Dateigre : 250 MiB
Duration : 24min
Gesamte Bitrate : 1 435 Kbps
Verwendetes Programm : VirtualDubMod 1.5.4.1 (build 2178/release)
verwendete Encoder-Bibliothek : VirtualDubMod build 2178/release

Video
Format : MPEG-4 Visual
Format profile : Streaming [email protected]
Format settings, BVOP : Ja
Format settings, QPel : Nein
Format settings, GMC : No warppoints
Format settings, Matrix : Custom
Codec ID : XVID
Codec ID/Hint : XviD
Duration : 24min
Bitrate : 1 242 Kbps
Breite : 720 Pixel
Höhe : 400 Pixel
Bildseitenverhältnis : 16/9
Bildwiederholungsrate : 25,000 FPS
Auflösung : 24 bits
Colorimetry : 4:2:0
Scan type : Progressive
Bits/(Pixel*Frame) : 0.172
Stream size : 216 MiB (87)
verwendete Encoder-Bibliothek : XviD 1.2.0SMP (UTC 2006-01-08)

Audio
Format : MPEG Audio
Format version : Version 1
Format profile : Layer 3
Codec ID : 55
Codec ID/Hint : MP3
Duration : 24min
Bitraten-Modus : Variable
Bitrate : 180 Kbps
Minimum bit rate : 192 Kbps
Kanäle : 2 Kanäle
Samplingrate : 48,0 KHz
Auflösung : 16 bits
Stream size : 31,4 MiB (13)
Alignment : Aligned on interleaves
Interleave, duration : 24 ms (0,60 video frame)
Interleave, preload duration : 549 ms
verwendete Encoder-Bibliothek : LAME3.97b
Kodierungseinstellungen : ABR

Audio: deutsch

related torrents

Torrent name

health leech seeds Size
 


comments (0)

Main Menu