Anime - Other

Busou Renkin 26 Folgen COMPLETE ADBT

  • Download 5x Faster
  • Download torrent
  • Direct Download
  • Rate this torrent +  |  -
Busou Renkin 26 Folgen COMPLETE ADBT

Free and Direct Download with Usenet.nl 300GB+ free


Torrent info

Name:Busou Renkin 26 Folgen COMPLETE ADBT

Total Size: 4.44 GB

Magnet: Magnet Link

Seeds: 0

Leechers: 0

Stream: Watch Online @ Movie4u

Last Updated: 2011-01-02 02:38:11 (Update Now)

Torrent added: 2008-10-17 07:48:29





Torrent Files List


[SFS]Busou_Renkin_01[XviD][C3A913F1].avi (Size: 4.44 GB) (Files: 26)

 [SFS]Busou_Renkin_01[XviD][C3A913F1].avi

175.81 MB

 [SFS]Busou_Renkin_02[XviD][41B0DB95].avi

173.97 MB

 [SFS]Busou_Renkin_03[XviD][3F4CE67E].avi

176.05 MB

 [SFS]Busou_Renkin_04[XviD][004E8A9D].avi

173.30 MB

 [SFS]Busou_Renkin_05[XviD][DBCEC6DC].avi

175.31 MB

 [SFS]Busou_Renkin_06[XviD][3175FDCE].avi

156.85 MB

 [SFS]Busou_Renkin_07[XviD][35AFF7AD].avi

179.27 MB

 [SFS]Busou_Renkin_08[XviD][3503F02E].avi

179.31 MB

 [SFS]Busou_Renkin_09[XviD][F924EF37].avi

175.77 MB

 [SFS]Busou_Renkin_10[XviD][863F731C].avi

175.75 MB

 [SFS]Busou_Renkin_11[XviD][863F731C].avi

175.43 MB

 [SFS]Busou_Renkin_12[XviD][A14FB1FF].avi

175.81 MB

 [SFS]Busou_Renkin_13[XviD][BBE1E6F0].avi

180.26 MB

 [SFS]Busou_Renkin_14[XviD][8E092F79].avi

181.19 MB

 [SFS]Busou_Renkin_15[XviD][05C5C0D1].avi

172.48 MB

 [SFS]Busou_Renkin_16[XviD][863F731C].avi

173.32 MB

 [SFS]Busou_Renkin_17[XviD][7930A699].avi

174.32 MB

 [SFS]Busou_Renkin_18[XviD][87D87112].avi

174.17 MB

 [SFS]Busou_Renkin_19[XviD][650457C7].avi

171.52 MB

 [SFS]Busou_Renkin_20[XviD][DC6EB3CF].avi

174.51 MB

 [SFS]Busou_Renkin_21[XviD][864ABA73].avi

174.52 MB

 [SFS]Busou_Renkin_22[XviD][CCAE569B].avi

174.50 MB

 [SFS]Busou_Renkin_23[XviD][455694AA].avi

177.65 MB

 [SFS]Busou_Renkin_24[XviD][863F731C].avi

174.51 MB

 [SFS]Busou_Renkin_25[XviD][863F731C].avi

174.49 MB

 [SFS]Busou_Renkin_26[XviD][AFC4CDE5].avi

174.27 MB
 

Announce URL:

Torrent description

Busou Renkin 26 Folgen gersub - COMPLETE - DVDRip

All Credits goes to SFS

Der Schüler Kazuki Muto träumt eines Nachts, dass er bei dem Versuch, ein Mädchen vor einem Monster zu schützen, selbst getötet wird. Obwohl der Traum überaus real ist, misst Kazuki ihm keine grere Bedeutung bei.
Es häufen sich aber bald einige Merkwürdigkeiten, die ihn stutzen lassen, und schließlich sieht sich Kazuki erneut dem Monster aus seinem Traum gegenüber, und auch dem Mädchen,
Tokiko Tsumura, das er darin retten wollte. Sie erklärt ihm, dass er in der vorherigen Nacht tatsächlich von einem Homunculus getötet worden ist, als dieses sein Herz durchbohrte.
Die Homunculi sind menschenfressende Lebewesen, die durch Alchemie erschaffen wurden, und im Verborgenen leben und töten.
Tokiko selbst gehört einer Organisation an, die sich dem Kampf gegen die Homunculi verschrieben hat. Ein besonderes Metall, das Kakugane, ist ihr Hauptwerkzeug. Es liegt in der Form sechseckiger,
handflächengroßer Scheiben vor, die sowohl heilende Fähigkeiten besitzen, als auch in den Händen eines Trägers zu mächtigen Waffen, den buso renkin, werden können, die einzigen, mit denen die Homunculi besiegt werden können. Mit einer solchen Kakugane-Scheibe konnte Tokiko Kazukis
Leben retten, indem sie sie an die Stelle seines Herzens in seine Brust setzte.

Auch Kazuki kann sein Kakugane in eine Waffe verwandeln, die die Form einer großen Lanze hat.
Obwohl Tokiko anfangs dagegen ist, besteht der Junge darauf, seine neugewonnene Kraft dafür zu nutzen, Tokiko in ihrem Kampf zu helfen.


Vollständiger Name : J:Busou Renkin 26 Folgen gersub
Format : AVI
Dateigre : 176 MiB
Duration : 23min
Gesamte Bitrate : 1 050 Kbps
Verwendetes Programm : VirtualDubMod 1.5.10.2 (build 2540/release)
verwendete Encoder-Bibliothek : VirtualDubMod build 2540/release

Video
Format : MPEG-4 Visual
Format profile : [email protected]
Format settings, BVOP : Nein
Format settings, QPel : Nein
Format settings, GMC : No warppoints
Format settings, Matrix : Default
Codec ID : XVID
Codec ID/Hint : XviD
Duration : 23min
Bitrate : 912 Kbps
Breite : 704 Pixel
Höhe : 396 Pixel
Bildseitenverhältnis : 16/9
Bildwiederholungsrate : 23,976 FPS
Auflösung : 24 bits
Colorimetry : 4:2:0
Scan type : Progressive
Bits/(Pixel*Frame) : 0.136
Stream size : 153 MiB (87)
verwendete Encoder-Bibliothek : XviD 1.0.2 (UTC 2004-08-29)

Audio
Format : MPEG Audio
Format version : Version 1
Format profile : Layer 3
Codec ID : 55
Codec ID/Hint : MP3
Duration : 23min
Bitraten-Modus : Constant
Bitrate : 128 Kbps
Kanäle : 2 Kanäle
Samplingrate : 48,0 KHz
Auflösung : 16 bits
Stream size : 21,4 MiB (12)
Alignment : Split accross interleaves
Interleave, duration : 42 ms (1,00 video frame)
Interleave, preload duration : 500 ms

Audio: japanisch
Untertitel: deutsch

related torrents

Torrent name

health leech seeds Size
 

comments (0)

Main Menu