Classic

Toru Takemitsu Toward the Sea, Rain Tree, Rain Spell, Bryce Toronto New Music Ensemble (2001) F

  • Download 5x Faster
  • Download torrent
  • Direct Download
  • Rate this torrent +  |  -

Torrent info

Name:Toru Takemitsu Toward the Sea, Rain Tree, Rain Spell, Bryce Toronto New Music Ensemble (2001) F

Total Size: 300.48 MB

Magnet: Magnet Link

Seeds: 0

Leechers: 0

Stream: Watch Online @ Movie4u

Last Updated: 2015-09-07 15:34:32 (Update Now)

Torrent added: 2008-10-17 04:35:14





Torrent Files List


Scans (Size: 300.48 MB) (Files: 15)

 Scans

  Booklet 001.png

11.46 MB

  Booklet 002.png

12.08 MB

  Booklet 003.png

12.24 MB

  Booklet 004.png

12.32 MB

  Booklet 005.png

12.19 MB

  Booklet 006.png

12.22 MB

  Disc.png

10.29 MB

  Tray.png

10.62 MB

 CDImage (flac).cue

1.91 KB

 CDImage (wav).cue

1.91 KB

 CDImage.flac

207.05 MB

 EAC.log

2.54 KB

 Info.txt

3.13 KB

 Read me.txt

0.49 KB

 Torrent downloaded from Demonoid.com.txt

0.05 KB
 

tracker

leech seeds
 

Torrent description

Robert Aitken invited Takemitsu to Canada for performances of his chamber music in the New Music Concerts series in 1975 and 1983. The close friendships that developed between them, as well as with the members of the Toronto-based NEXUS percussion ensemble and many other Toronto musicians, led to the composition of a number of works which received their first performances in Toronto. Most of the pieces on this recording were personally performed for Takemitsu by these players and benefited from his coaching.

Toru Takemitsu (1930 - 1996)

Chamber Music

01. And Then I Knew 'Twas Wind
02. Rain Tree
Toward the Sea
03. I - The Night
04. II - Moby Dick
05. III - Cape Cod
06. Bryce
07. Itinerant
08. Voice
09. Air
10. Rain Spell

Toronto New Music Ensemble
Robert Aitken

"Music is either sound or silence. As long as I live I shall choose sound as something to confront a silence. That sound should be a single, strong sound."
- Toru Takemitsu (1962)

Gramophone - Reviewed: Awards 2003, Barry Witherden

Outstanding release that showcases these musicians’ empathy with Takemitsu’s world

Much of Takemitsu’s later music exhibited a softening around the edges, yet the self-confessed Romantic never lost the power to enchant, continuing to conjure soundscapes of otherworldly beauty right to the end. I’d argue in favour of a lower-case romanticism: his work in the final decade of his life was gentle, full of tenderness, sentiment and sighs rather than the elemental, flagellatory melodrama of Romanticism with a capital Aah! He never entirely discarded the starker beauty of his earlier work, though. Air, premièred 23 days before he died, distills much of the spirit of his music, evoking the French Impressionists, modernist asceticism and the pared-down elegance of Japanese traditional music and gardens. It was written for flautist Aurèle Nicolet and first played in public by Yasukazu Uemura, but it is hard to imagine Robert Aitken’s performance being bettered.
Aitken invited Takemitsu to Canada in 1975 and 1983. From these visits grew a special relationship with the musicians featured on this outstanding album. They performed most of these works for the composer, so we can assume that the interpretations bear the hallmark of authenticity: they certainly sound utterly convincing to me, with their perfect balance of the technical (sharply focused realisations of dots on lines) and the emotional (restrained but warm evocations of the non-musical under-pinnings). Itinerant (1989) is a case in point: Takemitsu pictures a garden where vegetable and mineral, motion and stability mingle in precisely designed harmony, yet each visitor’s perspective discovers a fresh view.
The programming is as admirable as the playing, surveying Takemitsu’s music for small forces from 1971 (Voice, with its references to Noh theatre) to 1995 (Air). From the pastoral, slightly eerie trio for flute, viola and harp And Then I Knew – devised as a companion-piece to Debussy’s 1915 Sonata for the same instruments – and the shimmering, celestial Rain Tree, to Rain Spell, brooding and turbulent in turns, this is yet another excellent 20th-century showcase from Naxos.

Exact Audio Copy V0.99 prebeta 4 from 23. January 2008

EAC extraction logfile from 16. October 2008, 9:53

Toronto New Music Ensemble, Robert Aitken / Toru Takemitsu - Toward the Sea, Rain Tree, Rain Spell, Bryce

Used drive : PLEXTOR CD-R PREMIUM2 Adapter: 1 ID: 1

Read mode : Secure
Utilize accurate stream : Yes
Defeat audio cache : Yes
Make use of C2 pointers : No

Read offset correction : 30
Overread into Lead-In and Lead-Out : No
Fill up missing offset samples with silence : Yes
Delete leading and trailing silent blocks : No
Null samples used in CRC calculations : Yes
Used interface : Installed external ASPI interface

Used output format : Internal WAV Routines
Sample format : 44.100 Hz; 16 Bit; Stereo


TOC of the extracted CD

Track | Start | Length | Start sector | End sector
---------------------------------------------------------
1 | 0:00.00 | 12:56.35 | 0 | 58234
2 | 12:56.35 | 12:34.45 | 58235 | 114829
3 | 25:31.05 | 3:33.39 | 114830 | 130843
4 | 29:04.44 | 4:10.54 | 130844 | 149647
5 | 33:15.23 | 3:36.69 | 149648 | 165916
6 | 36:52.17 | 10:38.00 | 165917 | 213766
7 | 47:30.17 | 4:26.21 | 213767 | 233737
8 | 51:56.38 | 5:10.57 | 233738 | 257044
9 | 57:07.20 | 6:09.21 | 257045 | 284740
10 | 63:16.41 | 8:40.34 | 284741 | 323774


Range status and errors

Selected range

Filename D:\Classical\Toru Takemitsu - Toward the Sea, Rain Tree, Rain Spell, Bryce [Toronto New Music Ensemble] (2001) [FLAC]\CDImage.wav

Peak level 95.0 %
Range quality 100.0 %
Test CRC E5013D72
Copy CRC E5013D72
Copy OK

No errors occurred


AccurateRip summary

Track 1 accurately ripped (confidence 7) [1643787C]
Track 2 accurately ripped (confidence 7) [1382D6CF]
Track 3 accurately ripped (confidence 7) [BBB9F03B]
Track 4 accurately ripped (confidence 7) [FFD52777]
Track 5 accurately ripped (confidence 6) [A3ECEDE1]
Track 6 accurately ripped (confidence 6) [5C14E69C]
Track 7 accurately ripped (confidence 6) [AE010747]
Track 8 accurately ripped (confidence 6) [4D1DADA1]
Track 9 accurately ripped (confidence 6) [3F6AF0CC]
Track 10 accurately ripped (confidence 7) [030F34DF]

All tracks accurately ripped

End of status report

related torrents

Torrent name

health leech seeds Size
 

comments (0)

Main Menu