Action

Wanted (2008) DvdRip Xvid {1337x} Noir

  • Download 5x Faster
  • Download torrent
  • Direct Download
  • Rate this torrent +  |  -
Wanted (2008) DvdRip Xvid {1337x} Noir

Free and Direct Download with Usenet 300GB+ free


Torrent info

Name:Wanted (2008) DvdRip Xvid {1337x} Noir

Total Size: 708.13 MB

Magnet: Magnet Link

Seeds: 2

Leechers: 19

Stream: Watch Online @ Movie4u

Last Updated: 2010-10-06 14:35:30 (Update Now)

Torrent added: 2008-10-16 22:03:44




Torrent Files List


1337x.Org.txt (Size: 708.13 MB) (Files: 3)

 1337x.Org.txt

0.03 KB

 Noir.nfo

5.70 KB

 Wanted (2008) [DvdRip] [Xvid] {1337x}-Noir.avi

708.13 MB
 

Announce URL: http://genesis.1337x.org:1337/announce

Torrent description

Wanted (2008) DvdRip Xvid {1337x} Noir preview 0

Screenshots

Wanted (2008) DvdRip Xvid {1337x} Noir preview 1

Wanted (2008) DvdRip Xvid {1337x} Noir preview 2

Wanted (2008) DvdRip Xvid {1337x} Noir preview 3

Wanted (2008) DvdRip Xvid {1337x} Noir preview 4
[code]


▓▓▓▓▓▓
▓█████▓ ▓▓▓▓
▓██████▓ ▓▓███▓
▓▓██████▓ ▓████▓▓▓▓▓▓
██████▓ ▓██▒█▓▓███▓▓ ▓▓▓▓▓▓▓▓▓▓▓▓▓
▓██▒████▓ ▓██▒█▓██████▓▓███▓███▓███▓▓
▓██▒▒████▓ ▓██▒███▒▒▒▒██▓████████████▓
▓██▒▒▒▒███▓ ▓██▒██▒▒▒▒▒▒███▒▒▒██▒█▒▒▒██▓▓
▓██▒▒██▒▒██▓▓██▒██▒▒█▒▒▒▒███████▒▒▒▒▒▒██▓
▓██▒▒███▒▒██▓██▒██▒█▓█▒▒▒██▒▒▒██▒▒██▒▒▒█▓
▓██▒▒████▒▒████▒██▒█▓█▒▒▒██▒▒▒██▒▒███▒██▓
▓██▒▒█▓███▒▒███▒██▒▒█▒▒▒▒██▒▒▒██▒▒██████▓
▓██▒▒█▓▓███▒▒██▒██▒▒▒▒▒▒▒██▒▒▒██▒▒██▓███▓
▓▓██▒▒█▓ ▓███▒▒█▒██▒▒▒▒▒▒▒███████▒▒██▓▓▓▓▓
▓▓███▒▒█▓ ▓███▒▒▒███▒▒▒▒▒██▓▓▓▓██▒▒██▓
▓████▒▒█▓ ▓███▒▒█████████▓▓ ▓██▒▒██▓
▓████▒▒█▓ ▓███▒█▓██████▓▓▓ ▓██████▓
▓███████▓ ▓▓████▓▓▓▓▓▓▓▓ ▓▓▓▓▓▓▓▓
▓▓▓▓▓▓▓▓▓ ▓▓▓▓▓




***************
* Wanted 2008 *
***************

________________________
General Information |
________________________|
_______________________________________________________________
Type : Movie
Format : AVI
Format/Info : Audio Video Interleave
File size : 708 MiB
Duration : 1h 45mn
Language : English
Source : Dvd PAL
Subtitles : None
Genre : Action | Drama | Thriller
IMDB Link : http://www.imdb.com/title/tt0493464/
Rating : 7.1/10
_______________________________________________________________
________________________________________________________________
Video
Format : MPEG-4 Visual
Format profile : Streaming [email protected]
Format settings, BVOP : Yes
Format settings, QPel : No
Format settings, GMC : No warppoints
Format settings, Matrix : Default
Muxing mode : Packed bitstream
Codec ID : XVID
Codec ID/Hint : XviD
Duration : 1h 45mn
Bit rate : 802 Kbps
Width : 640 pixels
Height : 272 pixels
Display aspect ratio : 2.35
Frame rate : 25.000 fps
Resolution : 24 bits
Colorimetry : 4:2:0
Scan type : Progressive
Bits/(Pixel*Frame) : 0.184
Stream size : 604 MiB (85%)
_______________________________________________________________
Audio
Format : MPEG Audio
Format version : Version 1
Format profile : Layer 3
Codec ID : 55
Codec ID/Hint : MP3
Duration : 1h 45mn
Bit rate mode : Constant
Bit rate : 128 Kbps
Channel(s) : 2 channels
Sampling rate : 48.0 KHz
Resolution : 16 bits
Stream size : 96.5 MiB (14%)
Alignment : Aligned on interleaves
Interleave, duration : 40 ms (1.00 video frame)
Interleave, preload duration : 504 ms
Writing library : LAME3.98
Encoding settings : CBR
_______________________________________________________________
________________
Description
________________
_______________________________________________________________
The anxious, clumsy and abused office clerk Wesley Allan
Gibson has a hell and boring routine life: his obese boss
humiliates him all the time and his girlfriend betrays him
with his colleague and best friend during working period.
When he meets the sexy Fox, Wesley is informed that his
father was a professional killer that belonged to an ancient
organization called Fraternity and killed by the skilled and
powerful Cross, a hit-man that has betrayed the Fraternity.
Wesley learns that his anxiety actually is a manifestation
of his latent abilities and he joins the society under the
command of Sloan. Trained by Fox, he changes his personality
and attitude, being prepared to face the dangerous Cross and
find a hidden secret
_______________________________________________________________

___________________
Notes
___________________
_______________________________________________________________
Be aware People are starting to use my tag to create fake files
Make sure its a real genuine release from me, I have never and
will never do Cams,Telesyncs,Telecine or RAR files.Try to check
1337x.org to see if the file exist.

Fuck the fakers and enjoy my release.
_______________________________________________________________
___________________
Post Information
___________________
_________________________________
Posted by............: Noir
Posted on............: 10/16/2008
_________________________________
[/code]

Wanted (2008) DvdRip Xvid {1337x} Noir preview 5

Wanted (2008) DvdRip Xvid {1337x} Noir preview 6

related torrents

Torrent name

health leech seeds Size
 

comments (0)

Main Menu