Drama

American History X optimized for Iphone and Ipod Touch

  • Download 5x Faster
  • Download torrent
  • Direct Download
  • Rate this torrent +  |  -
American History X optimized for Iphone and Ipod Touch

Anonymous and Free Direct Download 300GB+


Torrent info

Name:American History X optimized for Iphone and Ipod Touch

Total Size: 414.63 MB

Magnet: Magnet Link

Seeds: 0

Leechers: 0

Stream: Watch Online @ Movie4u

Last Updated: 2016-01-30 19:44:04 (Update Now)

Torrent added: 2008-10-16 04:34:18



VPN For Torrents

Torrent Files List


American History X.mp4 (Size: 414.63 MB) (Files: 2)

 American History X.mp4

414.63 MB

 American History X.txt

2.20 KB
 

tracker

leech seeds
 

Torrent description

American History X
http://www.imdb.com/title/tt0120586/


Video
Format : AVC
Format/Info : Advanced Video Codec
Format profile : [email protected]
Format settings, CABAC : No
Format settings, ReFrames : 1 frame
Codec ID : avc1
Duration : 1h 52mn
Bit rate mode : Variable
Bit rate : 416 Kbps
Maximum bit rate : 1215 Kbps
Width : 480 pixels
Height : 256 pixels
Frame rate mode : Constant
Frame rate : 23.976 fps
Bits/(Pixel*Frame) : 0.141
Stream size : 335 MiB (81%)

Audio
Format : AAC
Format/Info : Advanced Audio Codec
Format version : Version 4
Format profile : LC
Duration : 1h 52mn
Bit rate mode : Variable
Bit rate : 96.0 Kbps
Maximum bit rate : 110 Kbps
Channel(s) : 2 channels
Channel positions : L R
Sampling rate : 48.0 KHz
Stream size : 77.4 MiB (19%)



Thanks for downloading one of my Movies, optimized for play
on a Ipod Touch or Iphone. This movie was created with
MeGUI using a custom profile to take advantage of the Iphone
and Ipod Touch's capabilities. The bitrate is 416/96, for a
total of 512. The resolution is 480*xxx, based on the aspect
ratio of the movie. I know space and quality is everything,
so I gave no more bits or resolution then I had to. To keep
The Quality high, I ran 3 passes for the video. Keep in mind
that the screen the Iphone and Ipod Touch use is 480x360, so
this is the best resolution to use to keep the quality high
and the file size low.

related torrents

Torrent name

health leech seeds Size
 


comments (0)

Main Menu