Drama

Million Dollar Baby optimized for Iphone and Ipod Touch

  • Download 5x Faster
  • Download torrent
  • Direct Download
  • Rate this torrent +  |  -
Million Dollar Baby optimized for Iphone and Ipod Touch

Anonymous and Direct Download 300GB+ free


Torrent info

Name:Million Dollar Baby optimized for Iphone and Ipod Touch

Total Size: 469.50 MB

Magnet: Magnet Link

Seeds: 0

Leechers: 0

Stream: Watch Online @ Movie4u

Last Updated: 2016-01-30 09:18:01 (Update Now)

Torrent added: 2008-10-16 04:34:18




Torrent Files List


Million Dollar Baby.mp4 (Size: 469.50 MB) (Files: 2)

 Million Dollar Baby.mp4

469.50 MB

 Million Dollar Baby.txt

2.36 KB
 

tracker

leech seeds
 

Torrent description

Video
Format : AVC
Format/Info : Advanced Video Codec
Format profile : [email protected]
Format settings, CABAC : No
Format settings, ReFrames : 1 frame
Codec ID : avc1
Duration : 2h 7mn
Bit rate mode : Variable
Bit rate : 416 Kbps
Maximum bit rate : 1044 Kbps
Width : 480 pixels
Height : 208 pixels
Display aspect ratio : 2.35
Frame rate mode : Constant
Frame rate : 23.976 fps
Bits/(Pixel*Frame) : 0.174
Stream size : 379 MiB (81%)
Writing library : x264 core 65 r998M 6768543

Audio
Format : AAC
Format/Info : Advanced Audio Codec
Format version : Version 4
Format profile : LC
Format settings, SBR : No
Codec ID : 40
Duration : 2h 7mn
Bit rate mode : Variable
Bit rate : 96.0 Kbps
Maximum bit rate : 114 Kbps
Channel(s) : 2 channels
Channel positions : L R
Sampling rate : 48.0 KHz
Resolution : 16 bits
Stream size : 87.6 MiB (19%)

Thanks for downloading one of my Movies, optimized for play
on a Ipod Touch or Iphone. This movie was created with
MeGUI using a custom profile to take advantage of the Iphone
and Ipod Touch's capabilities. The bitrate is 416/96, for a
total of 512. The resolution is 480*xxx, based on the aspect
ratio of the movie. I know space and quality is everything,
so I gave no more bits or resolution then I had to. To keep
The Quality high, I ran 3 passes for the video. Keep in mind
that the screen the Iphone and Ipod Touch use is 480x360, so
this is the best resolution to use to keep the quality high
and the file size low.

related torrents

Torrent name

health leech seeds Size
 


comments (0)

Main Menu