Action

Sin City optimized for Iphone and Ipod Touch

  • Download 5x Faster
  • Download torrent
  • Direct Download
  • Rate this torrent +  |  -
Sin City optimized for Iphone and Ipod Touch

Free and Direct Download with Usenet 300GB+ free


Torrent info

Name:Sin City optimized for Iphone and Ipod Touch

Total Size: 431.69 MB

Magnet: Magnet Link

Seeds: 0

Leechers: 1

Stream: Watch Online @ Movie4u

Last Updated: 2016-01-27 22:46:33 (Update Now)

Torrent added: 2008-10-16 04:34:18




Torrent Files List


Sin City.mp4 (Size: 431.69 MB) (Files: 2)

 Sin City.mp4

431.69 MB

 Sin City.txt

2.33 KB
 

tracker

leech seeds
 

Torrent description

Video
Format : AVC
Format/Info : Advanced Video Codec
Format profile : [email protected]
Format settings, CABAC : No
Format settings, ReFrames : 1 frame
Codec ID : avc1
Duration : 1h 57mn
Bit rate mode : Variable
Bit rate : 416 Kbps
Maximum bit rate : 1543 Kbps
Width : 480 pixels
Height : 256 pixels
Frame rate mode : Constant
Frame rate : 23.976 fps
Scan type : Progressive
Bits/(Pixel*Frame) : 0.141
Stream size : 349 MiB (81%)
Writing library : x264 core 65 r998M 6768543

Audio
Format : AAC
Format/Info : Advanced Audio Codec
Format version : Version 4
Format profile : LC
Format settings, SBR : No
Duration : 1h 57mn
Bit rate mode : Variable
Bit rate : 96.0 Kbps
Maximum bit rate : 132 Kbps
Channel(s) : 2 channels
Channel positions : L R
Sampling rate : 48.0 KHz
Resolution : 16 bits
Stream size : 80.5 MiB (19%)



Thanks for downloading one of my Movies, optimized for play
on a Ipod Touch or Iphone. This movie was created with
MeGUI using a custom profile to take advantage of the Iphone
and Ipod Touch's capabilities. The bitrate is 416/96, for a
total of 512. The resolution is 480*xxx, based on the aspect
ratio of the movie. I know space and quality is everything,
so I gave no more bits or resolution then I had to. To keep
The Quality high, I ran 3 passes for the video. Keep in mind
that the screen the Iphone and Ipod Touch use is 480x360, so
this is the best resolution to use to keep the quality high
and the file size low.

related torrents

Torrent name

health leech seeds Size
 

comments (0)

Main Menu