TV - Other

Emmerdale (7th July 2008) PDTV (Xvid) xtremespeeds net

  • Download 5x Faster
  • Download torrent
  • Direct Download
  • Rate this torrent +  |  -
Emmerdale (7th July 2008) PDTV (Xvid) xtremespeeds net

Free and Direct Download with 300GB+ free

Torrent info

Name:Emmerdale (7th July 2008) PDTV (Xvid) xtremespeeds net

Total Size: 174.83 MB

Magnet: Magnet Link

Seeds: 3

Leechers: 1

Stream: Watch Online @ Movie4u

Last Updated: 2009-11-23 03:13:32 (Update Now)

Torrent added: 2008-07-07 21:37:14

Torrent Files List

Emmerdale (7th July 2008) [PDTV (Xvid)].avi (Size: 174.83 MB) (Files: 2)

 Emmerdale (7th July 2008) [PDTV (Xvid)].avi

174.83 MB

 Emmerdale (7th July 2008) [PDTV (Xvid)].nfo

2.49 KB

Announce URL:

Torrent description

Emmerdale (7th July 2008) [PDTV (Xvid)].avi


Emmerdale (Soap)
Time - 19:00 - 19:30 (30 minutes long)
When - Monday 7th July on ITV1 London
Donald announces that he is retiring - and asks Carl to be MD. Marlon agrees to return to the Woolpack. Eli and Gennie gloss over their kiss.
Director: Tracey Rooney
Starring: Christopher Villiers, Georgia Slowe, Lucy Pargeter, Mark Charnock, Verity Rushworth, Deena Payne
(Stereo, Widescreen, Subtitles, Audio Described)

Video info:-

Complete name: Emmerdale (7th July 2008) [PDTV (Xvid)].avi
Format: AVI
Format/Info: Audio Video Interleave
File size: 175 MiB
Duration: 21mn 34s
Overal bit rate: 1133 Kbps
Writing application: VirtualDubMod (build 2178/release)
Writing library: VirtualDubMod build 2178/release

Format: MPEG-4 Visual
Format settings, BVOP: No
Format settings, QPel: No
Format settings, GMC: 0 warppoint
Format settings, Matrix: Default
Codec ID: XVID
Codec ID/Hint: XviD
Duration: 21mn 34s
Bit rate: 998 Kbps
Width: 640 pixels
Height: 368 pixels
Display aspect ratio: 16/9
frame rate: 25.000 fps
Resolution: 8 bits
Colorimetry: 4:2:0
Scan type: Progressive
Bits/(Pixel*frame): 0.169
Stream size: 154 MiB
Writing library: XviD 1.0.1
Writing library/Date: UTC 2004-06-05

Format: MPEG Audio
Format version: Version 1 / Layer 3
Codec ID: 55
Codec ID/Hint: MP3
Duration: 21mn 34s
Bit rate mode: CBR
Bit rate: 128 Kbps
Minimum bit rate: 128 Kbps
Channel(s): 2 channels
Sampling rate: 48.0 KHz
Resolution: 16 bits
Stream size: 19.8 MiB
Writing library: LAME3.97
Encoding settings: CBR

related torrents

Torrent name

health leech seeds Size

comments (0)

Main Menu