Other

!hq! Daybreakers (2010) Ts xvid

  • Download 5x Faster
  • Download torrent
  • Direct Download
  • Rate this torrent +  |  -
!hq! Daybreakers (2010) Ts xvid

Anonymous and Free Direct Download 300GB+


Torrent info

Name:!hq! Daybreakers (2010) Ts xvid

Total Size: 1.22 GB

Magnet: Magnet Link

Seeds: 0

Leechers: 31

Stream: Watch Online @ Movie4u

Last Updated: 2010-01-30 06:34:03 (Update Now)

Torrent added: 2010-01-30 05:14:35



VPN For Torrents

Torrent Files List


 

Announce URL: http://tracker.thepiratebay.org/announce

Torrent description

Daybreakers 2010 TeleSync HQ XviD

Format : AVI
Format/Info : Audio Video Interleave
Format profile : OpenDML
File size : 1.22 GiB
Duration : 1h 31mn
Overall bit rate : 1 906 Kbps
Writing application : AVI-Mux GUI 1.17.7, Aug 8 2006 20:59:17

Video
Format : MPEG-4 Visual
Format settings, BVOP : Yes
Format settings, QPel : No
Format settings, GMC : No warppoints
Format settings, Matrix : Default (H.263)
Muxing mode : Packed bitstream
Codec ID : DX50
Codec ID/Hint : DivX 5
Duration : 1h 31mn
Bit rate : 1 642 Kbps
Width : 652 pixels
Height : 332 pixels
Display aspect ratio : 1.964
Frame rate : 25.000 fps
Resolution : 24 bits
Colorimetry : 4:2:0
Scan type : Progressive
Bits/(Pixel*Frame) : 0.303
Stream size : 1.05 GiB (86%)
Writing library : DivX 6.2.5 (UTC 2006-06-16)

Audio
Format : MPEG Audio
Format version : Version 1
Format profile : Layer 3
Codec ID : 55
Codec ID/Hint : MP3
Duration : 1h 31mn
Bit rate mode : Constant
Bit rate : 256 Kbps
Channel(s) : 2 channels
Sampling rate : 48.0 KHz
Resolution : 16 bits
Stream size : 167 MiB (13%)
Alignment : Aligned on interleaves
Interleave, duration : 24 ms (0.60 video frame)
Interleave, preload duration : 192 ms
Writing library : LAME3.98 (alpha)

related torrents

Torrent name

health leech seeds Size
 


comments (0)

Main Menu