Anime - Other

Meine Liebe Vol 1 bis 5 COMPLETE ADBT

  • Download 5x Faster
  • Download torrent
  • Direct Download
  • Rate this torrent +  |  -
Meine Liebe Vol 1 bis 5 COMPLETE ADBT

Anonymous and Free Direct Download 300GB+


Torrent info

Name:Meine Liebe Vol 1 bis 5 COMPLETE ADBT

Total Size: 3.06 GB

Magnet: Magnet Link

Seeds: 11

Leechers: 0

Stream: Watch Online @ Movie4u

Last Updated: 2011-01-04 06:48:37 (Update Now)

Torrent added: 2008-10-15 10:48:02



VPN For Torrents

Torrent Files List


Meine Liebe 01 - Stolz.avi (Size: 3.06 GB) (Files: 13)

 Meine Liebe 01 - Stolz.avi

254.39 MB

 Meine Liebe 02 - Skandal.avi

251.18 MB

 Meine Liebe 03 - Die Knospe.avi

253.28 MB

 Meine Liebe 04 - Das Fremde Land.avi

236.01 MB

 Meine Liebe 05 - Stolz und Einsamkeit.avi

215.46 MB

 Meine Liebe 06 - Pflicht.avi

224.66 MB

 Meine Liebe 07 - Lächeln.avi

253.36 MB

 Meine Liebe 08 - Komplott.avi

221.33 MB

 Meine Liebe 09 - Spiegelbild.avi

243.20 MB

 Meine Liebe 10 - Aufstand.avi

243.66 MB

 Meine Liebe 11 - Wahrheit.avi

244.75 MB

 Meine Liebe 12 - Ruine.avi

243.57 MB

 Meine Liebe 13 - Ideal.avi

250.94 MB
 

Announce URL: http://adbt.ath.cx/announce0000000000000000.php

Torrent description

Meine Liebe - Vol. 1 bis 5 - COMPLETE - DVDRip - Xvid Deutsch

Wir befinden uns in einem fiktiven Jahr 1935. Das Eliteinternat Rosenstolz auf der Insel Kuchen bildet
die Besten der Besten aus ganz Europa dazu aus, später einmal die wichtigen Rollen in Politik und
Wirtschaft zu besetzen. Die beiden jungen Männer Orpheleus und Ludwig stehen an der Spitze zweier
rivalisierender Gruppen von Studenten, die sich teils erbitterte Kämpfe untereinander liefern, einander
aber zugleich immer mehr schätzen lernen...

Allgemein
Vollständiger Name : J:Meine Liebe - Vol. 1 bis 5Meine Liebe 01 - Stolz.avi
Format : AVI
Format/Info : Audio Video Interleave
Dateigre : 254 MiB
Duration : 23min
Gesamte Bitrate : 1 506 Kbps

Video
Format : MPEG-4 Visual
Format profile : [email protected]
Format settings, BVOP : Nein
Format settings, QPel : Nein
Format settings, GMC : No warppoints
Format settings, Matrix : Default
Codec ID : XVID
Codec ID/Hint : XviD
Duration : 23min
Bitrate : 1 301 Kbps
Breite : 720 Pixel
Höhe : 480 Pixel
Bildseitenverhältnis : 1.500
Bildwiederholungsrate : 25,000 FPS
Standard : NTSC
Auflösung : 24 bits
Colorimetry : 4:2:0
Scan type : Progressive
Bits/(Pixel*Frame) : 0.151
Stream size : 220 MiB (86)
verwendete Encoder-Bibliothek : XviD 1.1.0 Beta2 (UTC 2005-04-04)

Audio
Format : MPEG Audio
Format version : Version 1
Format profile : Layer 3
Codec ID : 55
Codec ID/Hint : MP3
Bitraten-Modus : Constant
Bitrate : 192 Kbps
Kanäle : 2 Kanäle
Samplingrate : 48,0 KHz
Auflösung : 16 bits
Stream size : 32,4 MiB (13)
Alignment : Aligned on interleaves
Interleave, duration : 24 ms (0,60 video frame)

Audio: deutsch

related torrents

Torrent name

health leech seeds Size

Meine Liebe Wieder ADBT

0 0 1.70 GB 0
 


comments (0)

Main Menu