Pop

ROBERTO MUROLO Gold Le piu belle canzoni Flac Lossless2002

  • Download 5x Faster
  • Download torrent
  • Direct Download
  • Rate this torrent +  |  -
ROBERTO MUROLO Gold Le piu belle canzoni Flac Lossless2002

Free and Direct Download with Usenet 300GB+ free


Torrent info

Name:ROBERTO MUROLO Gold Le piu belle canzoni Flac Lossless2002

Total Size: 402.03 MB

Magnet: Magnet Link

Seeds: 3

Leechers: 0

Stream: Watch Online @ Movie4u

Last Updated: 2015-09-21 10:51:00 (Update Now)

Torrent added: 2008-10-15 08:35:16




Torrent Files List


01 Roberto Murolo - Cu'Mme!.flac (Size: 402.03 MB) (Files: 20)

 01 Roberto Murolo - Cu'Mme!.flac

27.25 MB

 02 Roberto Murolo - 'Mbriacame.flac

21.90 MB

 03 Roberto Murolo - Ammore.flac

27.80 MB

 04 Roberto Murolo - 'N'Ata Canzone.flac

26.91 MB

 05 Roberto Murolo - 'Sta Musica.flac

23.97 MB

 06 Roberto Murolo - 'A Luna e Tu.flac

24.75 MB

 07 Roberto Murolo - Basta 'na Notte.flac

17.99 MB

 08 Roberto Murolo - C' 'Aggia Fa'.flac

21.25 MB

 09 Roberto Murolo - Cercanno 'Nzuonno.flac

29.84 MB

 10 Roberto Murolo - Dicitincelle Vuie.flac

18.15 MB

 11 Roberto Murolo - L'Ammore Ca Nun Vene.flac

21.48 MB

 12 Roberto Murolo - L'Italia è Bbella.flac

20.30 MB

 13 Roberto Murolo - Ma Che Ce Pienze a ffà.flac

22.23 MB

 14 Roberto Murolo - Malafemmena.flac

18.85 MB

 15 Roberto Murolo - Niente se Fa'.flac

26.52 MB

 16 Roberto Murolo - Si vo' Ddio.flac

21.17 MB

 17 Roberto Murolo - Tu si' 'Na Cosa Grande.flac

19.38 MB

 18 Roberto Murolo - Aggio Aspetta' 'Stasera.flac

10.81 MB

 IMAGE 1.JPG

1.46 MB

 Roberto Murolo - Gold, Roberto Murolo, Le Più Belle Canzoni.txt

3.55 KB
 

tracker

leech seeds
 

Torrent description

ROBERTO MUROLO   Gold Le piu belle canzoni Flac Lossless2002 preview 0




[color=green][SIZE=7]::->DATI ALBUM<-::[/SIZE][/color]




Autore: Roberto murolo
Titolo: GOLD:LE PIU' BELLE CANZONI
Genere: pop /classiche napoletane.
Pubblicazione: 2002
Dischi: 1
Tracce: 18
format:[b] flac
[b]Etichetta:[b]Carosello [Carosello]




[b][color=green][SIZE=7]::->TRACK LIST<-::[/SIZE][/color]



1. Cu'mme' (duet mia martini)
2.'Mbriacame
3. Ammore
4.'N'ata canzone
5.'Sta musica
6.'A luna e tu
7. Basta 'na notte
8. C''aggia fa'
9. Cercando 'nzuonno
10.Dicitincelle vuie
11.L'ammore ca nun vene
12.L'italia e' bbella
13.Ma che pienze a efa'
14.Malafemmena
15.Niente se fa'
16.Si vo' ddio
17.Tu si' 'na cosa grande
18.Aggio aspetta 'stasera




----------------------------------------------------------------------------------------------------------------
Nasce a Napoli il 19 gennaio 1912, ma viene registrato all'anagrafe soltanto il giorno 23.

Murolo è figlio del poeta Ernesto Murolo e di Lia Cavalli.

Dopo i successi con il "quartetto Mida" e alcune partecipazioni a film tra il 1949 e il 1965, Murolo incide la celebre "Napoletana", antologia di dodici album sulla canzone partenopea dal XIII secolo, realizzata tra il 1959 e il 1963 insieme al maestro Eduardo Caliendo.

Una condanna subita per molestie sessuali su un minore gli causa un lungo periodo di lontananza dai media, impegnati in un'opera di completo ostracismo fino agli anni '80 quando, grazie anche all'intervento di alcuni estimatori tra cui Peppino Di Capri e Renzo Arbore (che gli dedicò una trasmissione televisiva), inizia un periodo di "recupero" dell'artista. Nel 1989, è protagonista di uno spettacolo dal titolo “Chitarre in concerto”, con la regia di Antonio Casagrande, insieme a Egisto Sarnelli, Tony Sigillo, Mario Maglione, Claudio Carluccio e l’attore Franco Gargia. Del 1990 è l'album Na voce, 'na chitarra, con quattro canzoni in duetto con Consiglia Licciardi l'album comprende il brano" Gioventu'" scritta da Roberto Murolo e Angelo Fiore Nel 1992 esce l'album Ottanta voglia di cantare in occasione del suo ottantesimo compleanno. Tra i successi del disco c'è un duetto con Renzo Arbore, oltre a Don Raffaè, cantata insieme all'autore, Fabrizio De André, e Cu'mmè, scritta da Enzo Gragnaniello e cantata con lui e con Mia Martini.

Del 1993 è l'album L'Italia è bbella di cui il brano Me può sunnà del Maestro Bruno Illiano riproposta nel 2001 da Anna Calemme e " Vurria turna' a pusilleco" scritta da Roberto Murolo e Angelo Fiore.

Sempre nel 1993, duetta nuovamente con Mia Martini e con la partecipazione di Enzo Gragnaniello nel brano Vieneme al Cantagiro dello stesso anno.Partecipa al Festival di Sanremo con L'italia e' bbella(Carlo Faiello) accompagnato sul palco da Angelo Fiore (2 voce) Gianni Conte (Chitarra) Carlo Faiello(mandolino)

Nel 1995 esce Anima e core, inciso insieme alla cantante Amalia Rodriguez.

Nel 1999 fonda a Scafati in collaborazione con l'Ass.ne AGLAIA diretta dal Maestro Espedito De Marino la Scuola della Canzone Napoletana.

Nel 2002, esce l'ultimo album, dal titolo Ho sognato di cantare.

L'anno successivo, nel mese di marzo, si spegne nella sua abitazione di Napoli di Via Cimarosa al Vomero.

Nel novembre 2007 esce un video inedito, trasmesso anche dal TG5, dove Murolo recita e canta in coppia con il cantautore Ciro Sebastianelli il suggestivo brano E canto, tratto dal nuovo cd Il mio amico Roberto Murolo (Warner per Ala Bianca-Nov 2007).

Il 6 gennaio 2008, Sky e Teleradio Padre Pio, in circuito internazionale, alle ore 21,30 mandano in onda un video di Roberto Murolo che canta Ave Maria Dolce Maria di Giovanna Pucciarelli contenuto nel cd " Il mio amico Roberto Murolo"

Tra i numerosi discepoli ed allievi che in suo nome e grazie ai suoi insegnamenti portano per il mondo quella passione e quella semplicità tipiche del grande Maestro fine dicitore della Canzone Napoletana, Mario Maglione, Claudio Carluccio, Stefano Mecca.


ROBERTO MUROLO   Gold Le piu belle canzoni Flac Lossless2002 preview 1

[color=green][SIZE=7]::->DATI TECNICI<-::[/SIZE][/color][/align]




[CITA=LOG]dBpoweramp Release 12.4 Digital Audio Extraction Log from Wednesday, May 28, 2008 8:37 AM

Drive & Settings
----------------

Ripping with drive 'E: [HL-DT-ST - DVD-RAM GSA-H58N]', Drive offset: 102, Overread Lead-in/out: No
AccurateRip: Active, Using C2: No, Cache: 1024 KB, FUA Cache Invalidate: No
Pass 1 Drive Speed: Max, Pass 2 Drive Speed: Max
Bad Sector Re-rip:: Drive Speed: Max, Maximum Re-reads: 34

Encoder: FLAC -compression-level-8 -verify

Extraction Log
--------------

Track 1: Ripped LBA 0 to 19842 (4:24) in 1:22. Filename: F:\ROBERTO MUROLO\01 Roberto Murolo - Cu'Mme!.flac
Secure (Warning) [Pass 1 & 2, Re-Rip 2 Frames]
CRC32: 03BDC42A

Track 2: Ripped LBA 19842 to 37219 (3:51) in 1:55. Filename: F:\ROBERTO MUROLO\02 Roberto Murolo - 'Mbriacame.flac
Secure [Pass 1 & 2]
CRC32: 3F79EF0A

Track 3: Ripped LBA 37219 to 58092 (4:38) in 1:30. Filename: F:\ROBERTO MUROLO\03 Roberto Murolo - Ammore.flac
Secure [Pass 1 & 2]
CRC32: 76615126

Track 4: Ripped LBA 58092 to 77398 (4:17) in 1:35. Filename: F:\ROBERTO MUROLO\04 Roberto Murolo - 'N'Ata Canzone.flac
Secure [Pass 1 & 2]
CRC32: 7D73EF12

Track 5: Ripped LBA 77398 to 96908 (4:20) in 1:29. Filename: F:\ROBERTO MUROLO\05 Roberto Murolo - 'Sta Musica.flac
Secure [Pass 1 & 2]
CRC32: C6A852A0

Track 6: Ripped LBA 96908 to 115551 (4:08) in 1:27. Filename: F:\ROBERTO MUROLO\06 Roberto Murolo - 'A Luna e Tu.flac
Secure [Pass 1 & 2]
CRC32: 4DFDF8DA

Track 7: Ripped LBA 115551 to 130179 (3:15) in 1:01. Filename: F:\ROBERTO MUROLO\07 Roberto Murolo - Basta 'na Notte.flac
Secure [Pass 1 & 2]
CRC32: 8DA373E7

Track 8: Ripped LBA 130179 to 145390 (3:22) in 0:53. Filename: F:\ROBERTO MUROLO\08 Roberto Murolo - C' 'Aggia Fa'.flac
Secure [Pass 1 & 2]
CRC32: CE59C990

Track 9: Ripped LBA 145390 to 167431 (4:53) in 1:25. Filename: F:\ROBERTO MUROLO\09 Roberto Murolo - Cercanno 'Nzuonno.flac
Secure [Pass 1 & 2]
CRC32: 58266A89

Track 10: Ripped LBA 167431 to 182418 (3:19) in 0:59. Filename: F:\ROBERTO MUROLO\10 Roberto Murolo - Dicitincelle Vuie.flac
Secure [Pass 1 & 2]
CRC32: 91B14C4F

Track 11: Ripped LBA 182418 to 200251 (3:57) in 0:52. Filename: F:\ROBERTO MUROLO\11 Roberto Murolo - L'Ammore Ca Nun Vene.flac
Secure [Pass 1 & 2]
CRC32: 260758C0

Track 12: Ripped LBA 200251 to 216342 (3:34) in 1:02. Filename: F:\ROBERTO MUROLO\12 Roberto Murolo - L'Italia e Bbella.flac
Secure [Pass 1 & 2]
CRC32: 1581B713

Track 13: Ripped LBA 216342 to 233471 (3:48) in 1:00. Filename: F:\ROBERTO MUROLO\13 Roberto Murolo - Ma Che Ce Pienze a ffa.flac
Secure [Pass 1 & 2]
CRC32: 837163B9

Track 14: Ripped LBA 233471 to 249045 (3:27) in 1:06. Filename: F:\ROBERTO MUROLO\14 Roberto Murolo - Malafemmena.flac
Secure [Pass 1 & 2]
CRC32: DA38093A

Track 15: Ripped LBA 249045 to 270009 (4:39) in 1:13. Filename: F:\ROBERTO MUROLO\15 Roberto Murolo - Niente se Fa'.flac
Secure [Pass 1 & 2]
CRC32: 135B6925

Track 16: Ripped LBA 270009 to 289088 (4:14) in 1:13. Filename: F:\ROBERTO MUROLO\16 Roberto Murolo - Si vo' Ddio.flac
Secure [Pass 1 & 2]
CRC32: 6B444133

Track 17: Ripped LBA 289088 to 306616 (3:53) in 1:06. Filename: F:\ROBERTO MUROLO\17 Roberto Murolo - Tu si' 'Na Cosa Grande.flac
Secure [Pass 1 & 2]
CRC32: 57D06423

Track 18: Ripped LBA 306616 to 316479 (2:11) in 0:48. Filename: F:\ROBERTO MUROLO\18 Roberto Murolo - Aggio Aspetta' 'Stasera.flac
Secure [Pass 1 & 2]
CRC32: 8AA90420

--------------

18 Tracks Ripped: 17 Secure, 1 Secure (Warning)
[/CITA]


ROBERTO MUROLO   Gold Le piu belle canzoni Flac Lossless2002 preview 2

related torrents

Torrent name

health leech seeds Size
 

comments (0)

Main Menu