Other

Room And A Half (2010) Dvdscr Xvid max

  • Download 5x Faster
  • Download torrent
  • Direct Download
  • Rate this torrent +  |  -
Room And A Half (2010) Dvdscr Xvid max

Free and Direct Download with Usenet.nl 300GB+ free


Torrent info

Name:Room And A Half (2010) Dvdscr Xvid max

Total Size: 705.18 MB

Magnet: Magnet Link

Seeds: 0

Leechers: 0

Stream: Watch Online @ Movie4u

Last Updated: 2016-02-04 06:22:32 (Update Now)

Torrent added: 2010-01-29 20:01:58





Torrent Files List


 

tracker

leech seeds
 

Torrent description

Format : AVI
Format/Info : Audio Video Interleave
Duration : 2h 8mn
Overall bit rate : 1 517 Kbps
Writing application : VirtualDubMod 1.5.10.2 (build 2542/release)
Writing library : VirtualDubMod build 2542/release
Original source form : MAX TORRENTZ
Copyright : SIGISMUNT

Video
Format : xvid
Codec ID : xvid
Duration : 2h 8mn
Bit rate : 1 376 Kbps
Width : 704 pixels
Height : 384 pixels
Display aspect ratio : 16:9
Frame rate : 23.976 fps
Resolution : 24 bits
Bits/(Pixel*Frame) : 0.212
Stream size : 1.23 GiB (91%)

Audio
ID : 1
Format : MPEG Audio
Format version : Version 1
Format profile : Layer 3
Codec ID : 55
Codec ID/Hint : MP3
Duration : 2h 8mn
Bit rate mode : Constant
Bit rate : 128 Kbps
Channel(s) : 2 channels
Sampling rate : 48.0 KHz
Resolution : 16 bits
Stream size : 118 MiB (8%)
Alignment : Aligned on interleaves
Interleave, duration : 24 ms (0.58 video frame)
Interleave, preload duration : 504 ms
http://www.imdb.com/title/tt0988045/


Screens: " border="0" alt="Room And A Half (2010) Dvdscr Xvid max preview 0"/>" rel="nofollow">
Room And A Half (2010) Dvdscr Xvid max preview 1" border="0" alt="Room And A Half (2010) Dvdscr Xvid max preview 0"/>
" border="0" alt="Room And A Half (2010) Dvdscr Xvid max preview 2"/>" rel="nofollow">
Room And A Half (2010) Dvdscr Xvid max preview 3" border="0" alt="Room And A Half (2010) Dvdscr Xvid max preview 2"/>
" border="0" alt="Room And A Half (2010) Dvdscr Xvid max preview 4"/>" rel="nofollow">
Room And A Half (2010) Dvdscr Xvid max preview 5" border="0" alt="Room And A Half (2010) Dvdscr Xvid max preview 4"/>
" border="0" alt="Room And A Half (2010) Dvdscr Xvid max preview 6"/>" rel="nofollow">
Room And A Half (2010) Dvdscr Xvid max preview 7" border="0" alt="Room And A Half (2010) Dvdscr Xvid max preview 6"/>


ScreenCaps: " border="0" alt="Room And A Half (2010) Dvdscr Xvid max preview 8"/>" rel="nofollow">
Room And A Half (2010) Dvdscr Xvid max preview 9" border="0" alt="Room And A Half (2010) Dvdscr Xvid max preview 8"/>

related torrents

Torrent name

health leech seeds Size
 

comments (0)

Main Menu