Electronic

Hotel Costes Vol XI (Mixed By Stephane Pompougnac) (2008)Flac

  • Download 5x Faster
  • Download torrent
  • Direct Download
  • Rate this torrent +  |  -

Torrent info

Name:Hotel Costes Vol XI (Mixed By Stephane Pompougnac) (2008)Flac

Total Size: 440.33 MB

Magnet: Magnet Link

Seeds: 1

Leechers: 0

Stream: Watch Full Movie @ Movie4u

Last Updated: 2015-08-31 22:04:38 (Update Now)

Torrent added: 2008-10-14 04:35:24



VPN For Torrents

Torrent Files List


01 Marsmobil - Magnetising.flac (Size: 440.33 MB) (Files: 20)

 01 Marsmobil - Magnetising.flac

23.07 MB

 02 Naomi - How Many Loves.flac

24.44 MB

 03 Variety Lab - Soda Pop Confusion.flac

21.55 MB

 04 Pacha Massive - Don't Let Go.flac

20.99 MB

 05 Club des Belugas - Skip to the Bip.flac

31.09 MB

 06 Lena Horne - I Want a Little Doggie.flac

20.99 MB

 07 Dublex Inc feat. Ashley Slater - The Game.flac

31.92 MB

 08 Villa Black feat. Juanita Grande - Broken Wings (Pompougnac & Schillings Remix).flac

17.65 MB

 09 Kraac and Smaak - Enzo (Edit).flac

16.22 MB

 10 Waldeck - Why Did We Fire The Gun .flac

27.02 MB

 11 Stéphane Pompougnac with Nicole Graham - Eden.flac

28.76 MB

 12 DJ Farrapo & Yanes - Avisado.flac

25.73 MB

 13 Vanessa da Mata & Ben Harper - Boa Sorte.flac

24.18 MB

 14 Tom Eno - Tijuana.flac

25.43 MB

 15 Morten Vareno - Dead and Street (Trentemoller remix).flac

38.46 MB

 16 Gerrit Van Der Meer - A Suitcase of Light.flac

34.90 MB

 17 Shazz feat. Michael Robinson - Mirrage.flac

27.87 MB

 Hôtel Costes 11.cue

3.68 KB

 Stephane Pompougnac - Hôtel Costes 11.log

7.84 KB

 cover.jpg

47.54 KB
 

tracker

leech seeds
 

Torrent description

VA - Hotel Costes Vol. XI (Mixed By Stephane Pompougnac) (2008)


Hotel Costes Vol  XI (Mixed By Stephane Pompougnac) (2008)Flac preview 0

VA - Hotel Costes Vol. XI (Mixed By Stephane Pompougnac) (2008)

Format: Flac

Quality: Lossless Flac

Genre: Lo-Fi /Electronic /Chillout







1. Marsmobil - Magnetising

2. Naomi - How Many Loves

3. Variety Lab - Soda Pop Confusion

4. Pacha Massive - Don’t Let Go

5. Club Des Belugas - Skip to the Bip

6. Lena Horne - I Want a Little Doggie

7. Duplex Inc - The Game (feat. Asley Slater)

8. Villa Black feat Juanita Grande - Broken Wings (Pompougnac and Schillings Remix)

9. Kraak and Smaak - Enzo (Costes Edit)

10. Waldeck - Why Did We Fire the Gun

11. Stephane Pompougnac with Nicole Graham - Eden

12. DJ Farrapo & Yanes - Avisado

13. Vanessa Da Mata - Boa Sorte

14. Tom Eno - Tijuana

15. Morten Varano - Dead and Street (Trentemoller Remix)

16. Gerrit Van Der Meer - A Suitcase of Light

17. Shazz - Mirage


Hotel Costes Vol  XI (Mixed By Stephane Pompougnac) (2008)Flac preview 1

Hotel Costes Vol  XI (Mixed By Stephane Pompougnac) (2008)Flac preview 2

Exact Audio Copy V0.99 prebeta 4 from 23. January 2008

EAC extraction logfile from 29. September 2008, 13:05

Stephane Pompougnac / Hôtel Costes 11

Used drive : PIONEER DVD-RW DVR-111D Adapter: 1 ID: 0

Read mode : Secure
Utilize accurate stream : Yes
Defeat audio cache : Yes
Make use of C2 pointers : No

Read offset correction : 48
Overread into Lead-In and Lead-Out : No
Fill up missing offset samples with silence : Yes
Delete leading and trailing silent blocks : No
Null samples used in CRC calculations : Yes
Used interface : Native Win32 interface for Win NT & 2000
Gap handling : Appended to previous track

Used output format : User Defined Encoder
Selected bitrate : 128 kBit/s
Quality : High
Add ID3 tag : No
Command line compressor : C:\Program Files (x86)\Exact Audio Copy\FLAC\FLAC.EXE
Additional command line options : -6 -V -T "ARTIST=%a" -T "TITLE=%t" -T "ALBUM=%g" -T "DATE=%y" -T "TRACKNUMBER=%n" -T "GENRE=%m" -T "COMMENT=%e" %s -o %d


TOC of the extracted CD

Track | Start | Length | Start sector | End sector
---------------------------------------------------------
1 | 0:00.00 | 3:46.12 | 0 | 16961
2 | 3:46.12 | 3:43.38 | 16962 | 33724
3 | 7:29.50 | 3:01.39 | 33725 | 47338
4 | 10:31.14 | 3:25.68 | 47339 | 62781
5 | 13:57.07 | 4:24.55 | 62782 | 82636
6 | 18:21.62 | 3:26.60 | 82637 | 98146
7 | 21:48.47 | 5:18.59 | 98147 | 122055
8 | 27:07.31 | 2:43.26 | 122056 | 134306
9 | 29:50.57 | 2:40.42 | 134307 | 146348
10 | 32:31.24 | 4:58.47 | 146349 | 168745
11 | 37:29.71 | 4:45.72 | 168746 | 190192
12 | 42:15.68 | 3:56.14 | 190193 | 207906
13 | 46:12.07 | 3:44.33 | 207907 | 224739
14 | 49:56.40 | 3:57.53 | 224740 | 242567
15 | 53:54.18 | 6:29.03 | 242568 | 271745
16 | 60:23.21 | 5:33.17 | 271746 | 296737
17 | 65:56.38 | 4:28.69 | 296738 | 316906


Track 1

Filename C:\NEW SHIT\Stephane Pompougnac - Hotel Costes 11 (2008)\01 - Hôtel Costes 11 (2008) - Marsmobil , Magnetising.wav

Pre-gap length 0:00:02.00

Peak level 81.0 %
Track quality 100.0 %
Test CRC 5DA4BDA2
Copy CRC 5DA4BDA2
Track not present in AccurateRip database
Copy OK

Track 2

Filename C:\NEW SHIT\Stephane Pompougnac - Hotel Costes 11 (2008)\02 - Hôtel Costes 11 (2008) - Naomi , How Many Loves.wav

Peak level 79.1 %
Track quality 99.9 %
Test CRC 3156FA53
Copy CRC 3156FA53
Track not present in AccurateRip database
Copy OK

Track 3

Filename C:\NEW SHIT\Stephane Pompougnac - Hotel Costes 11 (2008)\03 - Hôtel Costes 11 (2008) - Vareity Lab , Soda Pop Confusion.wav

Peak level 80.4 %
Track quality 100.0 %
Test CRC DDBDF5B1
Copy CRC DDBDF5B1
Track not present in AccurateRip database
Copy OK

Track 4

Filename C:\NEW SHIT\Stephane Pompougnac - Hotel Costes 11 (2008)\04 - Hôtel Costes 11 (2008) - Pacha Massive , Don't Let Go.wav

Peak level 92.2 %
Track quality 100.0 %
Test CRC 0E7C6DE4
Copy CRC 0E7C6DE4
Track not present in AccurateRip database
Copy OK

Track 5

Filename C:\NEW SHIT\Stephane Pompougnac - Hotel Costes 11 (2008)\05 - Hôtel Costes 11 (2008) - Club des Belugas , Skip to the Bip.wav

Peak level 73.0 %
Track quality 100.0 %
Test CRC 0B23D4B5
Copy CRC 0B23D4B5
Track not present in AccurateRip database
Copy OK

Track 6

Filename C:\NEW SHIT\Stephane Pompougnac - Hotel Costes 11 (2008)\06 - Hôtel Costes 11 (2008) - Lena Horne , I Want a Little Doggie.wav

Peak level 82.6 %
Track quality 100.0 %
Test CRC 757F4B6B
Copy CRC 757F4B6B
Track not present in AccurateRip database
Copy OK

Track 7

Filename C:\NEW SHIT\Stephane Pompougnac - Hotel Costes 11 (2008)\07 - Hôtel Costes 11 (2008) - Dublex Inc , The Game Feat. Ashley Slater.wav

Peak level 82.9 %
Track quality 99.9 %
Test CRC F20F6CD1
Copy CRC F20F6CD1
Track not present in AccurateRip database
Copy OK

Track 8

Filename C:\NEW SHIT\Stephane Pompougnac - Hotel Costes 11 (2008)\08 - Hôtel Costes 11 (2008) - Villa Black , Broken Wings Feat. Juanita Grande (Pompougnac & Schillings Remix).wav

Peak level 96.7 %
Track quality 99.9 %
Test CRC 2089DBAC
Copy CRC 2089DBAC
Track not present in AccurateRip database
Copy OK

Track 9

Filename C:\NEW SHIT\Stephane Pompougnac - Hotel Costes 11 (2008)\09 - Hôtel Costes 11 (2008) - Kraac and Smaak , Enzo (Edit).wav

Peak level 93.8 %
Track quality 100.0 %
Test CRC CFFBEBD6
Copy CRC CFFBEBD6
Track not present in AccurateRip database
Copy OK

Track 10

Filename C:\NEW SHIT\Stephane Pompougnac - Hotel Costes 11 (2008)\10 - Hôtel Costes 11 (2008) - Waldeck , Why Did We Fire The Gun .wav

Peak level 78.5 %
Track quality 100.0 %
Test CRC 7BC6AF24
Copy CRC 7BC6AF24
Track not present in AccurateRip database
Copy OK

Track 11

Filename C:\NEW SHIT\Stephane Pompougnac - Hotel Costes 11 (2008)\11 - Hôtel Costes 11 (2008) - Stephane Pompougnac , Eden (with Nicole Graham).wav

Peak level 100.0 %
Track quality 100.0 %
Test CRC AB9BC244
Copy CRC AB9BC244
Track not present in AccurateRip database
Copy OK

Track 12

Filename C:\NEW SHIT\Stephane Pompougnac - Hotel Costes 11 (2008)\12 - Hôtel Costes 11 (2008) - DJ Farrapo & Yanes , Avisado.wav

Peak level 75.2 %
Track quality 100.0 %
Test CRC C00E7448
Copy CRC C00E7448
Track not present in AccurateRip database
Copy OK

Track 13

Filename C:\NEW SHIT\Stephane Pompougnac - Hotel Costes 11 (2008)\13 - Hôtel Costes 11 (2008) - Vanessa da Mata & Ben Harper , Boa Sorte.wav

Peak level 80.7 %
Track quality 99.9 %
Test CRC 0CB21D9B
Copy CRC 0CB21D9B
Track not present in AccurateRip database
Copy OK

Track 14

Filename C:\NEW SHIT\Stephane Pompougnac - Hotel Costes 11 (2008)\14 - Hôtel Costes 11 (2008) - Tom Eno , Tijuana.wav

Peak level 98.3 %
Track quality 100.0 %
Test CRC 0AD8AE1B
Copy CRC 0AD8AE1B
Track not present in AccurateRip database
Copy OK

Track 15

Filename C:\NEW SHIT\Stephane Pompougnac - Hotel Costes 11 (2008)\15 - Hôtel Costes 11 (2008) - Morten Vareno , Dead and Street (Trentemoller remix).wav

Peak level 81.8 %
Track quality 100.0 %
Test CRC 4FC6E344
Copy CRC 4FC6E344
Track not present in AccurateRip database
Copy OK

Track 16

Filename C:\NEW SHIT\Stephane Pompougnac - Hotel Costes 11 (2008)\16 - Hôtel Costes 11 (2008) - Gerrit Van Der Meer , A Suitcase of Light.wav

Peak level 77.5 %
Track quality 100.0 %
Test CRC A092B673
Copy CRC A092B673
Track not present in AccurateRip database
Copy OK

Track 17

Filename C:\NEW SHIT\Stephane Pompougnac - Hotel Costes 11 (2008)\17 - Hôtel Costes 11 (2008) - Shazz , Mirrage Feat. Michael Robinson.wav

Peak level 76.6 %
Track quality 100.0 %
Test CRC DDB5B5BB
Copy CRC DDB5B5BB
Track not present in AccurateRip database
Copy OK


None of the tracks are present in the AccurateRip database

No errors occurred

End of status report

related torrents

Torrent name

health leech seeds Size
 


comments (0)

Main Menu

 

script data-cfasync="false" src="//d2ghscazvn398x.cloudfront.net/?cshgd=690275">