Horror

The Substitute (2007) DvdRip Xvid {1337x} Noir

  • Download 5x Faster
  • Download torrent
  • Direct Download
  • Rate this torrent +  |  -
The Substitute (2007) DvdRip Xvid {1337x} Noir

Anonymous and Direct Download 300GB+ free


Torrent info

Name:The Substitute (2007) DvdRip Xvid {1337x} Noir

Total Size: 712.35 MB

Magnet: Magnet Link

Seeds: 4

Leechers: 5

Stream: Watch Online @ Movie4u

Last Updated: 2010-12-07 23:14:05 (Update Now)

Torrent added: 2008-10-13 21:33:29




Torrent Files List


1337x.Org.txt (Size: 712.35 MB) (Files: 5)

 1337x.Org.txt

0.03 KB

 Noir.nfo

5.35 KB

 Subtitles

  The Substitute (2007) [DvdRip] [Xvid] {1337x}-Noir.idx

110.52 KB

  The Substitute (2007) [DvdRip] [Xvid] {1337x}-Noir.sub

8.59 MB

 The Substitute (2007) [DvdRip] [Xvid] {1337x}-Noir.avi

703.65 MB
 

Announce URL: http://genesis.1337x.org:1337/announce

Torrent description

The Substitute (2007) DvdRip Xvid {1337x} Noir preview 0

Screenshots

The Substitute (2007) DvdRip Xvid {1337x} Noir preview 1

The Substitute (2007) DvdRip Xvid {1337x} Noir preview 2

The Substitute (2007) DvdRip Xvid {1337x} Noir preview 3

The Substitute (2007) DvdRip Xvid {1337x} Noir preview 4
[code]


▓▓▓▓▓▓
▓█████▓ ▓▓▓▓
▓██████▓ ▓▓███▓
▓▓██████▓ ▓████▓▓▓▓▓▓
██████▓ ▓██▒█▓▓███▓▓ ▓▓▓▓▓▓▓▓▓▓▓▓▓
▓██▒████▓ ▓██▒█▓██████▓▓███▓███▓███▓▓
▓██▒▒████▓ ▓██▒███▒▒▒▒██▓████████████▓
▓██▒▒▒▒███▓ ▓██▒██▒▒▒▒▒▒███▒▒▒██▒█▒▒▒██▓▓
▓██▒▒██▒▒██▓▓██▒██▒▒█▒▒▒▒███████▒▒▒▒▒▒██▓
▓██▒▒███▒▒██▓██▒██▒█▓█▒▒▒██▒▒▒██▒▒██▒▒▒█▓
▓██▒▒████▒▒████▒██▒█▓█▒▒▒██▒▒▒██▒▒███▒██▓
▓██▒▒█▓███▒▒███▒██▒▒█▒▒▒▒██▒▒▒██▒▒██████▓
▓██▒▒█▓▓███▒▒██▒██▒▒▒▒▒▒▒██▒▒▒██▒▒██▓███▓
▓▓██▒▒█▓ ▓███▒▒█▒██▒▒▒▒▒▒▒███████▒▒██▓▓▓▓▓
▓▓███▒▒█▓ ▓███▒▒▒███▒▒▒▒▒██▓▓▓▓██▒▒██▓
▓████▒▒█▓ ▓███▒▒█████████▓▓ ▓██▒▒██▓
▓████▒▒█▓ ▓███▒█▓██████▓▓▓ ▓██████▓
▓███████▓ ▓▓████▓▓▓▓▓▓▓▓ ▓▓▓▓▓▓▓▓
▓▓▓▓▓▓▓▓▓ ▓▓▓▓▓




*************************
* The Substitute (2007) *
*************************

________________________
General Information |
________________________|
_______________________________________________________________
Type : Movie
Format : AVI
Format/Info : Audio Video Interleave
File size : 704Mb
Duration : 1h 32mn
Language : English
Source : Dvd NTSC
Subtitles : English
Genre : Comedy | Fantasy | Horror | Sci-Fi
IMDB Link : http://www.imdb.com/title/tt0478394/
Rating : 6.2/10
_______________________________________________________________
________________________________________________________________
Video
Format : MPEG-4 Visual
Format profile : Streaming [email protected]
Format settings, BVOP : Yes
Format settings, QPel : No
Format settings, GMC : No warppoints
Format settings, Matrix : Default
Muxing mode : Packed bitstream
Codec ID : XVID
Codec ID/Hint : XviD
Duration : 1h 32mn
Bit rate : 927 Kbps
Width : 640 pixels
Height : 272 pixels
Display aspect ratio : 2.35
Frame rate : 23.976 fps
Resolution : 24 bits
Colorimetry : 4:2:0
Scan type : Progressive
Bits/(Pixel*Frame) : 0.222
Stream size : 613 MiB (87%)
_______________________________________________________________
Audio
Format : MPEG Audio
Format version : Version 1
Format profile : Layer 3
Codec ID : 55
Codec ID/Hint : MP3
Duration : 1h 32mn
Bit rate mode : Constant
Bit rate : 128 Kbps
Minimum bit rate : 128 Kbps
Channel(s) : 2 channels
Sampling rate : 48.0 KHz
Resolution : 16 bits
Stream size : 84.6 MiB (12%)
Alignment : Aligned on interleaves
Interleave, duration : 42 ms (1.00 video frame)
Interleave, preload duration : 504 ms
Writing library : LAME3.98
Encoding settings : CBR
_______________________________________________________________
________________
Description
________________
_______________________________________________________________
6th Grade gets a new substitute teacher. She wants to train
the class for an international competition in Paris. But
something isn\'t right. How is she able read kids\' minds?
Why is she so mean? And how does she manage to convince
everyone\'s parents she is so great when the whole class
knows she is really an alien?
_______________________________________________________________

___________________
Notes
___________________
_______________________________________________________________
Be aware People are starting to use my tag to create fake files
Make sure its a real genuine release from me, I have never and
will never do Cams,Telesyncs,Telecine or RAR files.Try to check
1337x.org to see if the file exist.

Fuck the fakers and enjoy my release.
_______________________________________________________________
___________________
Post Information
___________________
_________________________________
Posted by............: Noir
Posted on............: 10/13/2008
_________________________________
[/code]

The Substitute (2007) DvdRip Xvid {1337x} Noir preview 5

The Substitute (2007) DvdRip Xvid {1337x} Noir preview 6

related torrents

Torrent name

health leech seeds Size
 


comments (0)

Main Menu