Trance / House / Dance

House Mix Selecta jjbec 10 2008 rar

  • Download 5x Faster
  • Download torrent
  • Direct Download
  • Rate this torrent +  |  -
House Mix Selecta jjbec 10 2008 rar

Anonymous and free Direct Download 300GB+


Torrent info

Name:House Mix Selecta jjbec 10 2008 rar

Total Size: 68.94 MB

Magnet: Magnet Link

Seeds: 1

Leechers: 5

Stream: Watch Online @ Movie4u

Last Updated: 2010-08-11 05:19:36 (Update Now)

Torrent added: 2008-10-13 20:34:08



SpyOFF VPN

Torrent Files List


House Mix Selecta - jjbec [10 - 2008].rar (Size: 68.94 MB) (Files: 1)

 House Mix Selecta - jjbec [10 - 2008].rar

68.94 MB
 

Announce URL: http://open.tracker.thepiratebay.org/announce

Torrent description

Very House Selection Winter 2008 Mixed By jjbec

Burn Cue File Whit Nero Or Listening Whit Foobar2000

*.Cue Spec:

PERFORMER \\\"Mixed By jjbec\\\"
TITLE \\\"House Mix Selecta\\\"
FILE \\\"House_Mix_Selecta_-_jjbec.mp3\\\" MP3
TRACK 01 AUDIO
TITLE \\\"Get Shaky\\\"
PERFORMER \\\"Ian Carey Project\\\"
INDEX 01 00:00:00
TRACK 02 AUDIO
TITLE \\\"Ibiza\\\"
PERFORMER \\\"Desaparecidos vs Walter Master J\\\"
INDEX 01 03:45:00
TRACK 03 AUDIO
TITLE \\\"No Stress\\\"
PERFORMER \\\"Lauren Wolf\\\"
INDEX 01 06:14:74
TRACK 04 AUDIO
TITLE \\\"Freedom To Love (Chriss Ortega & Thomas Gold Remix)\\\"
PERFORMER \\\"Lexter\\\"
INDEX 01 09:41:17
TRACK 05 AUDIO
TITLE \\\"Could You Be Loved Vs I Love This Life\\\"
PERFORMER \\\"Nick Corline Vs Katherine Ellis\\\"
INDEX 01 13:10:21
TRACK 06 AUDIO
TITLE \\\"By Your Side\\\"
PERFORMER \\\"Yves Larock\\\"
INDEX 01 15:43:06
TRACK 07 AUDIO
TITLE \\\"Bora Bora\\\"
PERFORMER \\\"Juan Magan & Marcos Rodriguez\\\"
INDEX 01 18:12:45
TRACK 08 AUDIO
TITLE \\\"Feel The Rush\\\"
PERFORMER \\\"Shaggy feat Trix & Flix\\\"
INDEX 01 21:05:42
TRACK 09 AUDIO
TITLE \\\"Olè\\\"
PERFORMER \\\"John Revox\\\"
INDEX 01 24:03:16
TRACK 10 AUDIO
TITLE \\\"Innina Tora\\\"
PERFORMER \\\"Stylus Robb\\\"
INDEX 01 28:06:54
TRACK 11 AUDIO
TITLE \\\"Love Sex American Express (Marchi Vocal Mix)\\\"
PERFORMER \\\"Cristian Marchi feat. Dr Feelx\\\"
INDEX 01 31:59:68
TRACK 12 AUDIO
TITLE \\\"Feel Me (the Mediterranean Dream)\\\"
PERFORMER \\\"Paul & Luke\\\"
INDEX 01 35:07:30
TRACK 13 AUDIO
TITLE \\\"Say Yeah\\\"
PERFORMER \\\"Yves Larock\\\"
INDEX 01 39:37:28
TRACK 14 AUDIO
TITLE \\\"No Love Lost\\\"
PERFORMER \\\"SykenSugarstarr Pres Ce Ce Rogers\\\"
INDEX 01 43:37:27
TRACK 15 AUDIO
TITLE \\\"Give It 2 Me (Pete Tong & Dave Spoon Remix)\\\"
PERFORMER \\\"Madonna\\\"
INDEX 01 48:11:07
TRACK 16 AUDIO
TITLE \\\"I Want You (Laidback Luke Remix)\\\"
PERFORMER \\\"Martin Solveig\\\"
INDEX 01 52:56:05
TRACK 17 AUDIO
TITLE \\\"Cancun Paradise\\\"
PERFORMER \\\"Antoine Clamaran & Tristan Garner\\\"
INDEX 01 57:04:45
TRACK 18 AUDIO
TITLE \\\"Touch Me (Bart B More Remix)\\\"
PERFORMER \\\"Bingo Players & Chocolate Puma\\\"
INDEX 01 60:04:45
TRACK 19 AUDIO
TITLE \\\"Control\\\"
PERFORMER \\\"Dataworx\\\"
INDEX 01 64:19:44
TRACK 20 AUDIO
TITLE \\\"AfterParty\\\"
PERFORMER \\\"Lane, Fonseca\\\"
INDEX 01 67:04:44
TRACK 21 AUDIO
TITLE \\\"Cafe De Mar 2008\\\"
PERFORMER \\\"Energy 52\\\"
INDEX 01 71:12:05

related torrents

Torrent name

health leech seeds Size
 


comments (0)

Main Menu