Horror

The Last House in the Woods (2008) DvdRip Xvid {1337x} Noir

  • Download 5x Faster
  • Download torrent
  • Direct Download
  • Rate this torrent +  |  -
The Last House in the Woods (2008) DvdRip Xvid {1337x} Noir

Anonymous and Direct Download 300GB+ free


Torrent info

Name:The Last House in the Woods (2008) DvdRip Xvid {1337x} Noir

Total Size: 716.28 MB

Magnet: Magnet Link

Seeds: 0

Leechers: 0

Stream: Watch Online @ Movie4u

Last Updated: 2011-06-28 14:37:56 (Update Now)

Torrent added: 2008-10-13 12:39:57




Torrent Files List


1337x.Org.txt (Size: 716.28 MB) (Files: 5)

 1337x.Org.txt

0.03 KB

 Noir.nfo

5.29 KB

 Subtitles

  The Last House in the Woods (2008) [DvdRip] [Xvid] {1337x}-Noir.idx

136.06 KB

  The Last House in the Woods (2008) [DvdRip] [Xvid] {1337x}-Noir.sub

10.68 MB

 The Last House in the Woods (2008) [DvdRip] [Xvid] {1337x}-Noir.avi

705.46 MB
 

Announce URL:

Torrent description

The Last House in the Woods (2008) DvdRip Xvid {1337x} Noir preview 0

Screenshots

The Last House in the Woods (2008) DvdRip Xvid {1337x} Noir preview 1

The Last House in the Woods (2008) DvdRip Xvid {1337x} Noir preview 2

The Last House in the Woods (2008) DvdRip Xvid {1337x} Noir preview 3

The Last House in the Woods (2008) DvdRip Xvid {1337x} Noir preview 4
[code]


▓▓▓▓▓▓
▓█████▓ ▓▓▓▓
▓██████▓ ▓▓███▓
▓▓██████▓ ▓████▓▓▓▓▓▓
██████▓ ▓██▒█▓▓███▓▓ ▓▓▓▓▓▓▓▓▓▓▓▓▓
▓██▒████▓ ▓██▒█▓██████▓▓███▓███▓███▓▓
▓██▒▒████▓ ▓██▒███▒▒▒▒██▓████████████▓
▓██▒▒▒▒███▓ ▓██▒██▒▒▒▒▒▒███▒▒▒██▒█▒▒▒██▓▓
▓██▒▒██▒▒██▓▓██▒██▒▒█▒▒▒▒███████▒▒▒▒▒▒██▓
▓██▒▒███▒▒██▓██▒██▒█▓█▒▒▒██▒▒▒██▒▒██▒▒▒█▓
▓██▒▒████▒▒████▒██▒█▓█▒▒▒██▒▒▒██▒▒███▒██▓
▓██▒▒█▓███▒▒███▒██▒▒█▒▒▒▒██▒▒▒██▒▒██████▓
▓██▒▒█▓▓███▒▒██▒██▒▒▒▒▒▒▒██▒▒▒██▒▒██▓███▓
▓▓██▒▒█▓ ▓███▒▒█▒██▒▒▒▒▒▒▒███████▒▒██▓▓▓▓▓
▓▓███▒▒█▓ ▓███▒▒▒███▒▒▒▒▒██▓▓▓▓██▒▒██▓
▓████▒▒█▓ ▓███▒▒█████████▓▓ ▓██▒▒██▓
▓████▒▒█▓ ▓███▒█▓██████▓▓▓ ▓██████▓
▓███████▓ ▓▓████▓▓▓▓▓▓▓▓ ▓▓▓▓▓▓▓▓
▓▓▓▓▓▓▓▓▓ ▓▓▓▓▓




**************************************
* The Last House in the Woods (2006) *
**************************************

________________________
General Information |
________________________|
_______________________________________________________________
Type : Movie
Format : AVI
Format/Info : Audio Video Interleave
File size : 705Mb
Duration : 1h 25mn
Language : English
Source : Dvd NTSC
Subtitles : English,Spanish
Genre : Horror | Thriller
IMDB Link : http://www.imdb.com/title/tt0484175/
Rating : 4.6/10
_______________________________________________________________
________________________________________________________________
Video
Format : MPEG-4 Visual
Format profile : Streaming [email protected]
Format settings, BVOP : Yes
Format settings, QPel : No
Format settings, GMC : No warppoints
Format settings, Matrix : Default
Muxing mode : Packed bitstream
Codec ID : XVID
Codec ID/Hint : XviD
Duration : 1h 25mn
Bit rate : 1 013 Kbps
Width : 608 pixels
Height : 336 pixels
Display aspect ratio : 16/9
Frame rate : 29.970 fps
Resolution : 24 bits
Colorimetry : 4:2:0
Scan type : Progressive
Bits/(Pixel*Frame) : 0.165
Stream size : 620 MiB (88%)
_______________________________________________________________
Audio
Format : MPEG Audio
Format version : Version 1
Format profile : Layer 3
Codec ID : 55
Codec ID/Hint : MP3
Duration : 1h 25mn
Bit rate mode : Constant
Bit rate : 128 Kbps
Minimum bit rate : 128 Kbps
Channel(s) : 2 channels
Sampling rate : 48.0 KHz
Resolution : 16 bits
Stream size : 78.3 MiB (11%)
Alignment : Aligned on interleaves
Interleave, duration : 33 ms (1.00 video frame)
Interleave, preload duration : 504 ms
Writing library : LAME3.98
Encoding settings : CBR
_______________________________________________________________
________________
Description
________________
_______________________________________________________________
Young lovers escape a group of bullies seeking to harm them
and then take refuge with a seemingly kind older couple...
All too late, we discover that this older pair has a dark
hidden secret which unfolds in the quiet, secluded Last House
in the Woods.
_______________________________________________________________

___________________
Notes
___________________
_______________________________________________________________
Be aware People are starting to use my tag to create fake files
Make sure its a real genuine release from me, I have never and
will never do Cams,Telesyncs,Telecine or RAR files.Try to check
1337x.org to see if the file exist.

Fuck the fakers and enjoy my release.
_______________________________________________________________
___________________
Post Information
___________________
_________________________________
Posted by............: Noir
Posted on............: 10/12/2008
_________________________________
[/code]

The Last House in the Woods (2008) DvdRip Xvid {1337x} Noir preview 5

The Last House in the Woods (2008) DvdRip Xvid {1337x} Noir preview 6

related torrents

Torrent name

health leech seeds Size
 


comments (0)

Main Menu