Anime - Other

Animation Runner Kuromi OVA 2 ADBT

  • Download 5x Faster
  • Download torrent
  • Direct Download
  • Rate this torrent +  |  -
Animation Runner Kuromi OVA 2 ADBT

Anonymous and Direct Download 300GB+ free


Torrent info

Name:Animation Runner Kuromi OVA 2 ADBT

Total Size: 419.90 MB

Magnet: Magnet Link

Seeds: 12

Leechers: 0

Stream: Watch Online @ Movie4u

Last Updated: 2010-11-29 21:08:56 (Update Now)

Torrent added: 2008-10-13 12:33:04




Torrent Files List


Animation Runner Kuromi OVA 2.avi (Size: 419.90 MB) (Files: 2)

 Animation Runner Kuromi OVA 2.avi

419.84 MB

 Animation Runner Kuromi OVA 2.srt

59.07 KB
 

Announce URL: http://adbt.ath.cx/announce0000000000000000.php

Torrent description

Animation Runner Kuromi OVA 02 A M


Nachdem Kuromi bei der Produktion von Time Journeys so gute Arbeit geleistet hat, arbeitet das
Studio Petit jetzt an drei verschiedenen Serien. Dieses Mal bekommt sie jedoch Unterstützung von dem
erfahrenen Produzenten Rei Takashimadaira. Für Takashimadaira ist jedoch einzig und allein die
rechtzeitige Fertigstellung der Serien wichtig, sogar wenn es bedeutet, dass die Qualität darunter leidet.
Kuromi muss sich schließlich entscheiden, ob ihr der Abgabetermin oder die Qualität der Produkte
wichtiger ist.


Allgemein
Vollständiger Name : C:Users3333DesktopAnimation Runner Kuromi OVA 2Animation Runner Kuromi OVA 2.avi
Format : AVI
Format/Info : Audio Video Interleave
Dateigre : 420 MiB
Duration : 43min
Gesamte Bitrate : 1 339 Kbps
Verwendetes Programm : VirtualDubMod 1.5.10.2 (build 2540/release)
verwendete Encoder-Bibliothek : VirtualDubMod build 2540/release

Video
Format : MPEG-4 Visual
Format profile : [email protected]
Format settings, BVOP : Ja
Format settings, QPel : Nein
Format settings, GMC : No warppoints
Format settings, Matrix : Default
Muxing mode : Packet Bitstream
Codec ID : XVID
Codec ID/Hint : XviD
Duration : 43min
Bitrate : 1 004 Kbps
Breite : 720 Pixel
Höhe : 528 Pixel
Bildseitenverhältnis : 4/3
Bildwiederholungsrate : 25,000 FPS
Auflösung : 24 bits
Colorimetry : 4:2:0
Scan type : Progressive
Bits/(Pixel*Frame) : 0.106
Stream size : 315 MiB (75)
verwendete Encoder-Bibliothek : XviD 1.0.2 (UTC 2004-08-29)

Audio #1
Format : MPEG Audio
Format version : Version 1
Format profile : Layer 3
Codec ID : 55
Codec ID/Hint : MP3
Duration : 43min
Bitraten-Modus : Constant
Bitrate : 160 Kbps
Kanäle : 2 Kanäle
Samplingrate : 48,0 KHz
Auflösung : 16 bits
Stream size : 50,2 MiB (12)
Alignment : Aligned on interleaves
Interleave, duration : 40 ms (1,00 video frame)
Interleave, preload duration : 504 ms

Audio #2
Format : MPEG Audio
Format version : Version 1
Format profile : Layer 3
Codec ID : 55
Codec ID/Hint : MP3
Duration : 43min
Bitraten-Modus : Constant
Bitrate : 160 Kbps
Kanäle : 2 Kanäle
Samplingrate : 48,0 KHz
Auflösung : 16 bits
Stream size : 50,2 MiB (12)
Alignment : Aligned on interleaves
Interleave, duration : 40 ms (1,00 video frame)
Interleave, preload duration : 504 ms

Allgemein
Vollständiger Name : C:Users3333DesktopAnimation Runner Kuromi OVA 2Animation Runner Kuromi OVA 2.srt
Format : SubRip
Dateigre : 59,1 KiB

Text
Format : SubRip


Audio: deutsch, japanisch
Untertitel: deutsch

related torrents

Torrent name

health leech seeds Size

Dragon Rider OVA ADBT

0 0 461.06 MB 0
 


comments (0)

Main Menu