Classic

Christopher Rouse Trombone Concerto, Gorgon, Iscariot Colorado SO, Marin Alsop (1995) FLAC

  • Download 5x Faster
  • Download torrent
  • Direct Download
  • Rate this torrent +  |  -

Torrent info

Name:Christopher Rouse Trombone Concerto, Gorgon, Iscariot Colorado SO, Marin Alsop (1995) FLAC

Total Size: 341.75 MB

Magnet: Magnet Link

Seeds: 0

Leechers: 0

Stream: Watch Online @ Movie4u

Last Updated: 2011-02-23 13:03:38 (Update Now)

Torrent added: 2008-10-13 07:50:03




Torrent Files List


Scans (Size: 341.75 MB) (Files: 16)

 Scans

  Booklet 001.png

15.20 MB

  Booklet 002.png

11.57 MB

  Booklet 003.png

11.49 MB

  Booklet 004.png

12.14 MB

  Booklet 005.png

12.33 MB

  Booklet 006.png

11.36 MB

  Disc.png

10.52 MB

  Tray inside.png

12.86 MB

  Tray outside.png

12.10 MB

 CDImage (flac).cue

1.59 KB

 CDImage (wav).cue

1.59 KB

 CDImage.flac

232.15 MB

 EAC.log

2.26 KB

 Info.txt

2.13 KB

 Read me.txt

0.49 KB

 Torrent downloaded from Demonoid.com.txt

0.05 KB
 

Announce URL: http://inferno.demonoid.com:3396/announce

Torrent description

CHRISTOPHER ROUSE (b. 1949)

Trombone Concerto
(Winner of the 1993 Pulitzer Prize in Music)
1. Movement I
2. Movement II
3. Movement III
Joseph Alessi, trombone solo

Gorgon
4. Stheno
5. Perseus Spell
6. Euryale
7. Perseus Spell
8. Medusa

9. Iscariot

Colorado Symphony Orchestra
Marin Alsop, conductor
Wind Machine and Thunder Sheet by Killer.
Producer: Karen Chester
Engineer: Tom Lazarus

Recorded:
trombone concerto - february 1995
gorgon and iscariot - november 18 & 19 1995
at Boettcher Hall, Denver, Colorado
WORLD PREMIERE RECORDINGS

Christopher Rouse: Gorgon / Trombone Concerto / Iscariot
Marin Alsop, Colorado Symphony Orchestra

Three works by Christopher Rouse are highlighted on the BMG Classics/RCA Red Seal recording, "GORGON." The recording features the Colorado Symphony Orchestra as conducted by Marin Alsop, and a solo performance by Joseph Alessi on trombone (RCA Red Seal/BMG Classics 09026-68410-2), and earned a 'Diapason d'Or' award from the French magazine Diapason. Fanfare magazine voted it one their "best of the year" for 1997.
First up is Rouse's magnificent TROMBONE CONCERTO, winner of the 1993 Pulitzer Prize in Music. The concerto, commissioned by the New York Philharmonic for its 150th anniversary, was premiered in 1992 by the Philharmonic featuring Joseph Alessi on trombone. It is dedicated to the memory of Leonard Bernstein, who died around the time Rouse began working on the piece.
GORGON was commissioned by the Rochester Philharmonic in 1984, and is described by the composer as "a work of exorcistic rage, an attempt in music to heal by facing that which seems unfaceable." The Gorgons, in Greek mythology, were three monsters with women's bodies, and snakes for hair; the sight of Medusa, one of the Gorgons, could turn a person into stone.
Rouse calls ISCARIOT his most autobiographical piece, written "to purge certain emotional memories" from his system. Written in 1989 and premiered by the Saint Paul Chamber Orchestra conducted by John Adams, ISCARIOT seems like the musical antithesis of GORGON: reflective, and more like an unanswerable question than a declaration.
www.christopherrouse.com

Exact Audio Copy V0.99 prebeta 4 from 23. January 2008

EAC extraction logfile from 12. October 2008, 9:24

Colorado Symphony Orchestra, Marin Alsop / Christopher Rouse - Trombone Concerto, Gorgon, Iscariot

Used drive : PLEXTOR CD-R PREMIUM2 Adapter: 1 ID: 1

Read mode : Secure
Utilize accurate stream : Yes
Defeat audio cache : Yes
Make use of C2 pointers : No

Read offset correction : 30
Overread into Lead-In and Lead-Out : No
Fill up missing offset samples with silence : Yes
Delete leading and trailing silent blocks : No
Null samples used in CRC calculations : Yes
Used interface : Installed external ASPI interface

Used output format : Internal WAV Routines
Sample format : 44.100 Hz; 16 Bit; Stereo


TOC of the extracted CD

Track | Start | Length | Start sector | End sector
---------------------------------------------------------
1 | 0:00.00 | 11:07.20 | 0 | 50044
2 | 11:07.20 | 7:07.38 | 50045 | 82107
3 | 18:14.58 | 11:42.65 | 82108 | 134822
4 | 29:57.48 | 5:37.32 | 134823 | 160129
5 | 35:35.05 | 0:44.45 | 160130 | 163474
6 | 36:19.50 | 4:58.40 | 163475 | 185864
7 | 41:18.15 | 0:47.18 | 185865 | 189407
8 | 42:05.33 | 5:20.37 | 189408 | 213444
9 | 47:25.70 | 14:18.38 | 213445 | 277832


Range status and errors

Selected range

Filename D:\Classical\Christopher Rouse - Trombone Concerto, Gorgon, Iscariot [Colorado SO, Marin Alsop] (1995) [FLAC]\CDImage.wav

Peak level 100.0 %
Range quality 100.0 %
Test CRC 11090CC8
Copy CRC 11090CC8
Copy OK

No errors occurred


AccurateRip summary

"..."
None of the tracks are present in the AccurateRip database

End of status report

related torrents

Torrent name

health leech seeds Size
 


comments (0)

Main Menu