Horror

Room 205 (2007) DvdRip Xvid {1337x} Noir

  • Download 5x Faster
  • Download torrent
  • Direct Download
  • Rate this torrent +  |  -
Room 205 (2007) DvdRip Xvid {1337x} Noir

Free and Direct Download with Usenet 300GB+ free


Torrent info

Name:Room 205 (2007) DvdRip Xvid {1337x} Noir

Total Size: 707.32 MB

Magnet: Magnet Link

Seeds: 0

Leechers: 0

Stream: Watch Online @ Movie4u

Last Updated: 0000-00-00 00:00:00 (Update Now)

Torrent added: 2008-10-13 01:13:24




Torrent Files List


1337x.Org.txt (Size: 707.32 MB) (Files: 5)

 1337x.Org.txt

0.03 KB

 Noir.nfo

5.92 KB

 Room 205 (2007) [DvdRip] [Xvid] {1337x}-Noir.avi

703.48 MB

 Subtitles

  Room 205 (2007) [DvdRip] [Xvid] {1337x}-Noir.idx

54.40 KB

  Room 205 (2007) [DvdRip] [Xvid] {1337x}-Noir.sub

3.78 MB
 

Announce URL:

Torrent description

Room 205 (2007) DvdRip Xvid {1337x} Noir preview 0

Screenshots

Room 205 (2007) DvdRip Xvid {1337x} Noir preview 1

Room 205 (2007) DvdRip Xvid {1337x} Noir preview 2

Room 205 (2007) DvdRip Xvid {1337x} Noir preview 3

Room 205 (2007) DvdRip Xvid {1337x} Noir preview 4
[code]


▓▓▓▓▓▓
▓█████▓ ▓▓▓▓
▓██████▓ ▓▓███▓
▓▓██████▓ ▓████▓▓▓▓▓▓
██████▓ ▓██▒█▓▓███▓▓ ▓▓▓▓▓▓▓▓▓▓▓▓▓
▓██▒████▓ ▓██▒█▓██████▓▓███▓███▓███▓▓
▓██▒▒████▓ ▓██▒███▒▒▒▒██▓████████████▓
▓██▒▒▒▒███▓ ▓██▒██▒▒▒▒▒▒███▒▒▒██▒█▒▒▒██▓▓
▓██▒▒██▒▒██▓▓██▒██▒▒█▒▒▒▒███████▒▒▒▒▒▒██▓
▓██▒▒███▒▒██▓██▒██▒█▓█▒▒▒██▒▒▒██▒▒██▒▒▒█▓
▓██▒▒████▒▒████▒██▒█▓█▒▒▒██▒▒▒██▒▒███▒██▓
▓██▒▒█▓███▒▒███▒██▒▒█▒▒▒▒██▒▒▒██▒▒██████▓
▓██▒▒█▓▓███▒▒██▒██▒▒▒▒▒▒▒██▒▒▒██▒▒██▓███▓
▓▓██▒▒█▓ ▓███▒▒█▒██▒▒▒▒▒▒▒███████▒▒██▓▓▓▓▓
▓▓███▒▒█▓ ▓███▒▒▒███▒▒▒▒▒██▓▓▓▓██▒▒██▓
▓████▒▒█▓ ▓███▒▒█████████▓▓ ▓██▒▒██▓
▓████▒▒█▓ ▓███▒█▓██████▓▓▓ ▓██████▓
▓███████▓ ▓▓████▓▓▓▓▓▓▓▓ ▓▓▓▓▓▓▓▓
▓▓▓▓▓▓▓▓▓ ▓▓▓▓▓




*******************
* Room 205 (2007) *
*******************

________________________
General Information |
________________________|
_______________________________________________________________
Type : Movie
Format : AVI
Format/Info : Audio Video Interleave
File size : 703Mb
Duration : 1h 31mn
Language : English
Source : Dvd NTSC
Subtitles : English,Spanish
Genre : Horror
IMDB Link : http://www.imdb.com/title/tt1003005/
Rating : 4.3/10
_______________________________________________________________
________________________________________________________________
Video
Format : MPEG-4 Visual
Format profile : Streaming [email protected]
Format settings, BVOP : Yes
Format settings, QPel : No
Format settings, GMC : No warppoints
Format settings, Matrix : Default
Muxing mode : Packed bitstream
Codec ID : XVID
Codec ID/Hint : XviD
Duration : 1h 31mn
Bit rate : 941 Kbps
Width : 640 pixels
Height : 272 pixels
Display aspect ratio : 2.35
Frame rate : 23.976 fps
Resolution : 24 bits
Colorimetry : 4:2:0
Scan type : Progressive
Bits/(Pixel*Frame) : 0.225
Stream size : 614 MiB (87%)
_______________________________________________________________
Audio
Format : MPEG Audio
Format version : Version 1
Format profile : Layer 3
Codec ID : 55
Codec ID/Hint : MP3
Duration : 1h 31mn
Bit rate mode : Constant
Bit rate : 128 Kbps
Minimum bit rate : 128 Kbps
Channel(s) : 2 channels
Sampling rate : 48.0 KHz
Resolution : 16 bits
Stream size : 83.5 MiB (12%)
Alignment : Aligned on interleaves
Interleave, duration : 42 ms (1.00 video frame)
Interleave, preload duration : 504 ms
Writing library : LAME3.98
Encoding settings : CBR
_______________________________________________________________
________________
Description
________________
_______________________________________________________________
Wanting to start a fresh, Katrine moves from the province into
a dormitory in Copenhagen and enrolls at the University. But
when she crosses conniving Sanne by getting together with
Sanne\'s ex, all hell breaks loose. Sanne and her friends try
to bully Katrine out of the dormitory. They frighten her with
an old myth surrounding the ghost of a former resident. Yet
the myth very soon becomes a reality. By accident, Katrine
sets the ghost free, who then starts a terrifyingly gruesome
attack on the dormitory\'s residents. Only Katrine knows the
fate of the remaining residents if she doesn\'t stop the
actions of the ghost. However, no one believes Katrine\'s
story and they accuse her of the series of mysterious
murders. She seeks help in the former resident Rolf.
While the residents continue to die around them, Katrine
and Rolf embark on a desperate struggle to stop the ghost
before it kills those that are left..
_______________________________________________________________

___________________
Notes
___________________
_______________________________________________________________
Be aware People are starting to use my tag to create fake files
Make sure its a real genuine release from me, I have never and
will never do Cams,Telesyncs,Telecine or RAR files.Try to check
1337x.org to see if the file exist.

Fuck the fakers and enjoy my release.
_______________________________________________________________
___________________
Post Information
___________________
_________________________________
Posted by............: Noir
Posted on............: 10/12/2008
_________________________________
[code]

Room 205 (2007) DvdRip Xvid {1337x} Noir preview 5

Room 205 (2007) DvdRip Xvid {1337x} Noir preview 6

related torrents

Torrent name

health leech seeds Size
 

comments (0)

Main Menu