Horror

Trackman (2007) DvdRip Xvid {1337x} Noir

  • Download 5x Faster
  • Download torrent
  • Direct Download
  • Rate this torrent +  |  -
Trackman (2007) DvdRip Xvid {1337x} Noir

Anonymous and Direct Download 300GB+ free


Torrent info

Name:Trackman (2007) DvdRip Xvid {1337x} Noir

Total Size: 707.49 MB

Magnet: Magnet Link

Seeds: 0

Leechers: 1

Stream: Watch Online @ Movie4u

Last Updated: 2015-09-23 08:51:14 (Update Now)

Torrent added: 2008-10-12 19:47:51




Torrent Files List


1337x.Org.txt (Size: 707.49 MB) (Files: 5)

 1337x.Org.txt

0.03 KB

 Noir.nfo

5.35 KB

 Subtitles

  Trackman (2007) [DvdRip] [Xvid] {1337x}-Noir.idx

48.33 KB

  Trackman (2007) [DvdRip] [Xvid] {1337x}-Noir.sub

3.49 MB

 Trackman (2007) [DvdRip] [Xvid] {1337x}-Noir.avi

703.95 MB
 

tracker

leech seeds
 

Torrent description

Trackman (2007) DvdRip Xvid {1337x} Noir preview 0

Screenshots

Trackman (2007) DvdRip Xvid {1337x} Noir preview 1

Trackman (2007) DvdRip Xvid {1337x} Noir preview 2

Trackman (2007) DvdRip Xvid {1337x} Noir preview 3

Trackman (2007) DvdRip Xvid {1337x} Noir preview 4
[code]


??????
??????? ????
???????? ??????
????????? ???????????
??????? ???????????? ?????????????
????????? ???????????????????????????
?????????? ???????????????????????????
??????????? ?????????????????????????????
?????????????????????????????????????????
?????????????????????????????????????????
?????????????????????????????????????????
?????????????????????????????????????????
?????????????????????????????????????????
???????? ?????????????????????????????????
????????? ????????????????????????????
????????? ????????????????? ????????
????????? ???????????????? ????????
????????? ?????????????? ????????
????????? ?????




*****************
* Trackman 2007 *
*****************

________________________
General Information |
________________________|
_______________________________________________________________
Type : Movie
Format : AVI
Format/Info : Audio Video Interleave
File size : 704Mb
Duration : 1h 20mn
Language : English
Source : Dvd NTSC
Subtitles : English,Spanish
Genre : Horror | Thriller
IMDB Link : http://www.imdb.com/title/tt0900381/
Rating : 4.8/10
_______________________________________________________________
________________________________________________________________
Video
Format : MPEG-4 Visual
Format profile : Streaming [email protected]
Format settings, BVOP : Yes
Format settings, QPel : No
Format settings, GMC : No warppoints
Format settings, Matrix : Default
Muxing mode : Packed bitstream
Codec ID : XVID
Codec ID/Hint : XviD
Duration : 1h 20mn
Bit rate : 1 089 Kbps
Width : 640 pixels
Height : 272 pixels
Display aspect ratio : 2.35
Frame rate : 23.976 fps
Resolution : 24 bits
Colorimetry : 4:2:0
Scan type : Progressive
Bits/(Pixel*Frame) : 0.261
Stream size : 625 MiB (89%)
_______________________________________________________________
Audio
Format : MPEG Audio
Format version : Version 1
Format profile : Layer 3
Codec ID : 55
Codec ID/Hint : MP3
Duration : 1h 20mn
Bit rate mode : Constant
Bit rate : 128 Kbps
Minimum bit rate : 128 Kbps
Channel(s) : 2 channels
Sampling rate : 48.0 KHz
Resolution : 16 bits
Stream size : 73.5 MiB (10%)
Alignment : Aligned on interleaves
Interleave, duration : 42 ms (1.00 video frame)
Interleave, preload duration : 504 ms
Writing library : LAME3.98
Encoding settings : CBR
_______________________________________________________________
________________
Description
________________
_______________________________________________________________
After a successful bank heist, a couple of criminals take
refuge in the abandoned underground tunnels of a subway
system with their three hostages, and all seems to be going
as planned until they realize that there's no way out. What's
worse, a demented serial killer with a mission to kill is on
the loose and prowling the darkness..
_______________________________________________________________

___________________
Notes
___________________
_______________________________________________________________
Be aware People are starting to use my tag to create fake files
Make sure its a real genuine release from me, I have never and
will never do Cams,Telesyncs,Telecine or RAR files.Try to check
1337x.org to see if the file exist.

Fuck the fakers and enjoy my release.
_______________________________________________________________
___________________
Post Information
___________________
_________________________________
Posted by............: Noir
Posted on............: 10/12/2008
_________________________________
[/code]

Trackman (2007) DvdRip Xvid {1337x} Noir preview 5

Trackman (2007) DvdRip Xvid {1337x} Noir preview 6

related torrents

Torrent name

health leech seeds Size
 


comments (0)

Main Menu