Action

Taken (2008) DvdRip Xvid {1337x} Noir

  • Download 5x Faster
  • Download torrent
  • Direct Download
  • Rate this torrent +  |  -
Taken (2008) DvdRip Xvid {1337x} Noir

Anonymous and Direct Download 300GB+ free


Torrent info

Name:Taken (2008) DvdRip Xvid {1337x} Noir

Total Size: 705.67 MB

Magnet: Magnet Link

Seeds: 0

Leechers: 0

Stream: Watch Online @ Movie4u

Last Updated: 2016-12-01 19:31:21 (Update Now)

Torrent added: 2008-10-12 09:45:13




Torrent Files List


1337x.Org.txt (Size: 705.67 MB) (Files: 4)

 1337x.Org.txt

0.03 KB

 Noir.nfo

5.57 KB

 Subtitles

  Taken (2008) [DvdRip] [Xvid] {1337x}-Noir.srt

2.14 KB

 Taken (2008) [DvdRip] [Xvid] {1337x}-Noir.avi

705.66 MB
 

tracker

leech seeds
 

Torrent description

Taken (2008) DvdRip Xvid {1337x} Noir preview 0

Screenshots

Taken (2008) DvdRip Xvid {1337x} Noir preview 1

Taken (2008) DvdRip Xvid {1337x} Noir preview 2

Taken (2008) DvdRip Xvid {1337x} Noir preview 3

Taken (2008) DvdRip Xvid {1337x} Noir preview 4
[code]


▓▓▓▓▓▓
▓█████▓ ▓▓▓▓
▓██████▓ ▓▓███▓
▓▓██████▓ ▓████▓▓▓▓▓▓
██████▓ ▓██▒█▓▓███▓▓ ▓▓▓▓▓▓▓▓▓▓▓▓▓
▓██▒████▓ ▓██▒█▓██████▓▓███▓███▓███▓▓
▓██▒▒████▓ ▓██▒███▒▒▒▒██▓████████████▓
▓██▒▒▒▒███▓ ▓██▒██▒▒▒▒▒▒███▒▒▒██▒█▒▒▒██▓▓
▓██▒▒██▒▒██▓▓██▒██▒▒█▒▒▒▒███████▒▒▒▒▒▒██▓
▓██▒▒███▒▒██▓██▒██▒█▓█▒▒▒██▒▒▒██▒▒██▒▒▒█▓
▓██▒▒████▒▒████▒██▒█▓█▒▒▒██▒▒▒██▒▒███▒██▓
▓██▒▒█▓███▒▒███▒██▒▒█▒▒▒▒██▒▒▒██▒▒██████▓
▓██▒▒█▓▓███▒▒██▒██▒▒▒▒▒▒▒██▒▒▒██▒▒██▓███▓
▓▓██▒▒█▓ ▓███▒▒█▒██▒▒▒▒▒▒▒███████▒▒██▓▓▓▓▓
▓▓███▒▒█▓ ▓███▒▒▒███▒▒▒▒▒██▓▓▓▓██▒▒██▓
▓████▒▒█▓ ▓███▒▒█████████▓▓ ▓██▒▒██▓
▓████▒▒█▓ ▓███▒█▓██████▓▓▓ ▓██████▓
▓███████▓ ▓▓████▓▓▓▓▓▓▓▓ ▓▓▓▓▓▓▓▓
▓▓▓▓▓▓▓▓▓ ▓▓▓▓▓




**************
* Taken 2008 *
**************

________________________
General Information |
________________________|
_______________________________________________________________
Type : Movie
Format : AVI
Format/Info : Audio Video Interleave
File size : 704Mb
Duration : 1h 27mn
Language : English
Source : Dvd PAL
Subtitles : English When needed
Genre : Action | Crime | Drama | Thriller
IMDB Link : http://www.imdb.com/title/tt0936501/
Rating : 7.8/10
_______________________________________________________________
________________________________________________________________
Video
Format : MPEG-4 Visual
Format profile : Streaming [email protected]
Format settings, BVOP : Yes
Format settings, QPel : No
Format settings, GMC : No warppoints
Format settings, Matrix : Default
Muxing mode : Packed bitstream
Codec ID : XVID
Codec ID/Hint : XviD
Duration : 1h 29mn
Bit rate : 964 Kbps
Width : 656 pixels
Height : 272 pixels
Display aspect ratio : 2.35
Frame rate : 25.000 fps
Resolution : 24 bits
Colorimetry : 4:2:0
Scan type : Progressive
Bits/(Pixel*Frame) : 0.216
Stream size : 617 MiB (88%)
_______________________________________________________________
Audio
Format : MPEG Audio
Format version : Version 1
Format profile : Layer 3
Codec ID : 55
Codec ID/Hint : MP3
Duration : 1h 29mn
Bit rate mode : Constant
Bit rate : 128 Kbps
Minimum bit rate : 128 Kbps
Channel(s) : 2 channels
Sampling rate : 48.0 KHz
Resolution : 16 bits
Stream size : 82.0 MiB (12%)
Alignment : Aligned on interleaves
Interleave, duration : 40 ms (1.00 video frame)
Interleave, preload duration : 504 ms
Writing library : LAME3.98
Encoding settings : CBR
_______________________________________________________________
________________
Description
________________
_______________________________________________________________
Bryan (Liam Neeson), a former secret agent living in the US.
He is skilled in hand to hand combat, divorced; and loves his
17-year-old daughter Kim (Maggie Grace) who lives with his
ex-wife and her new husband Stuart (Xander Berkeley). Kim
wants to take a vacation in Europe with her friend Amanda
(Katie Cassidy), and together follow U2\'s European tour.
Kim\'s mother allows this, but Kim also needs permission from
her father. Since Kim fears that Bryan will not consent,
she pretends that they will only stay in Paris. Reluctantly,
Bryan agrees.
_______________________________________________________________

___________________
Notes
___________________
_______________________________________________________________
Be aware People are starting to use my tag to create fake files
Make sure its a real genuine release from me, I have never and
will never do Cams,Telesyncs,Telecine or RAR files.Try to check
1337x.org to see if the file exist.

Fuck the fakers and enjoy my release.
_______________________________________________________________
___________________
Post Information
___________________
_________________________________
Posted by............: Noir
Posted on............: 10/11/2008
_________________________________
[/code]

Taken (2008) DvdRip Xvid {1337x} Noir preview 5

Taken (2008) DvdRip Xvid {1337x} Noir preview 6

related torrents

Torrent name

health leech seeds Size
 


comments (0)

Main Menu