TV - Other

Alle unter einen Dach Season 1 dTVRip DivX

  • Download 5x Faster
  • Download torrent
  • Direct Download
  • Rate this torrent +  |  -
Alle unter einen Dach Season 1 dTVRip DivX

Anonymous and Free Direct Download 300GB+


Torrent info

Name:Alle unter einen Dach Season 1 dTVRip DivX

Total Size: 4.23 GB

Magnet: Magnet Link

Seeds: 3

Leechers: 0

Stream: Watch Online @ Movie4u

Last Updated: 2011-01-03 14:23:53 (Update Now)

Torrent added: 2008-10-12 08:38:50



VPN For Torrents

Torrent Files List


Alle.unter.einem.Dach.S01E01.Hilfe.Mama.kommt.avi (Size: 4.23 GB) (Files: 22)

 Alle.unter.einem.Dach.S01E01.Hilfe.Mama.kommt.avi

130.01 MB

 Alle.unter.einem.Dach.S01E02.Die.Manager.Mutter.avi

190.28 MB

 Alle.unter.einem.Dach.S01E03.Alles.frei.erfunden.avi

190.22 MB

 Alle.unter.einem.Dach.S01E04.Romantik.zu.dritt.avi

199.18 MB

 Alle.unter.einem.Dach.S01E05.Der.Einserschueler.avi

190.41 MB

 Alle.unter.einem.Dach.S01E06.Kein.Bock.auf.Basketball.avi

190.50 MB

 Alle.unter.einem.Dach.S01E07.Prachtstueck.mit.Beule.avi

224.60 MB

 Alle.unter.einem.Dach.S01E08.Sag.Mama.avi

187.74 MB

 Alle.unter.einem.Dach.S01E09.Die.Kung.Fu.Oma.avi

207.25 MB

 Alle.unter.einem.Dach.S01E10.Handschellen.fuer.einen.Star.avi

224.68 MB

 Alle.unter.einem.Dach.S01E11.Omas.Decke.avi

190.44 MB

 Alle.unter.einem.Dach.S01E12.Rendezvous.mit.drei.Verehrern.avi

224.68 MB

 Alle.unter.einem.Dach.S01E13.Der.Hund.muss.weg.avi

224.71 MB

 Alle.unter.einem.Dach.S01E14.Der.Koenig.der.Toertchen.avi

190.40 MB

 Alle.unter.einem.Dach.S01E15.Dicke.Freunde.avi

190.31 MB

 Alle.unter.einem.Dach.S01E16.Die.Party.des.Jahres.avi

224.61 MB

 Alle.unter.einem.Dach.S01S17.Ein.unvergesslicher.Abend.avi

206.52 MB

 Alle.unter.einem.Dach.S01S18.Nur.fuenfzehn.Kinder.avi

206.45 MB

 Alle.unter.einem.Dach.S01S19.Der.beruemte.Winslow.Schlag.avi

189.80 MB

 Alle.unter.einem.Dach.S01S20.Der.Kandidat.hat.keine.Ahnung.avi

189.90 MB

 Alle.unter.einem.Dach.S01S21.Kurzschluss.auf.der.Bowlingbahn.avi

169.36 MB

 Alle.unter.einem.Dach.S01S22.Der.Winslow.Rap.avi

190.25 MB
 

Announce URL: http://wreckingcrew.zapto.org/announce.php

Torrent description


...::::Edelweis-Group Presents::::...

Torrent Name: Alle unter einen Dach Seson 1 Complete

-------------------------

--> Movie/Serie

Sprache: [X] Deutsch [ ] Englisch [ ] siehe Beschreibung

Quelle:
Video: [ ] HDTV [ ] DVD [X] TV/dTV [ ] TS [ ] Cam [ ] Sonstiges
Audio: [ ] AC3 [ ] DVD [X] TV/dTV [ ] LD [ ] Micro [ ] Sonstiges

Genre: Serie/Comedy/Sitcom


Untertitel: keine

Extras: keine



-------------------------

Beschreibung:
Die afroamerikanische mittelständische Familie Winslow wohnt in einem Vorort der amerikanischen Grossstadt Chicago neben ihren Nachbarn,

den Urkels und den Niedermeyers. In jeder Folge führen typische Verhaltensmerkmale der Charaktere zu Problemen, die es zu lösen gilt. Im

Gegensatz zu den meisten anderen Sitcoms sind überraschend viele dramatische und ernst gemeinte Elemente vorzufinden. Ebenfalls fällt bei

Alle unter einem Dach ein häufiges Abgleiten in die Fiktion auf, zum Beispiel in Form einer von Urkel entwickelten Zeitmaschine. Mit ihren

215 Episoden in insgesamt 9 Staffeln gehört sie zu den erfolgreichsten Sitcoms überhaupt. Sie wurde von Warner Bros. Television produziert.

Der Hauptanteil des Erfolgs ist wohl auf den heimlichen Hauptcharakter Steve Urkel zurückzuführen, dessen unabsichtlich chaotisches

Verhalten eine einzigartig skurrile Komik herbeiführt. Letztendlich werden alle auftretenden Probleme durch den Zusammenhalt der Familie

gelöst, daher der Originaltitel der Serie.

-------------------------

Technische Details:
General
Format : AVI
Format/Info : Audio Video Interleave
File size : 130 MiB
Duration : 23mn 1s
Overall bit rate : 789 Kbps
Writing application : VirtualDubMod 1.5.4.1 (build 2178/release)
Writing library : VirtualDubMod build 2178/release

Video
Format : MPEG-4 Visual
Format profile : Streaming [email protected]
Format settings, BVOP : Yes
Format settings, QPel : No
Format settings, GMC : No warppoints
Format settings, Matrix : Custom
Codec ID : XVID
Codec ID/Hint : XviD
Duration : 23mn 1s
Bit rate : 654 Kbps
Width : 544 pixels
Height : 416 pixels
Display aspect ratio : 4/3
Frame rate : 25.000 fps
Resolution : 8 bits
Colorimetry : 4:2:0
Scan type : Progressive
Bits/(Pixel*Frame) : 0.116
Stream size : 108 MiB (83)
Writing library : XviD 1.1.0 (UTC 2005-11-22)

Audio
Format : MPEG Audio
Format version : Version 1
Format profile : Layer 3
Codec ID : 55
Codec ID/Hint : MP3
Duration : 23mn 1s
Bit rate mode : Constant
Bit rate : 128 Kbps
Minimum bit rate : 128 Kbps
Channel(s) : 2 channels
Sampling rate : 48.0 KHz
Resolution : 16 bits
Video delay : 48ms
Stream size : 21.1 MiB (16)
Alignment : Aligned on interleaves
Interleave, duration : 80 ms (2.00 video frames)
Interleave, preload duration : 504 ms
Writing library : LAME3.96r
Encoding settings : CBR



--------------------------------------------

Note:

Happy Leeching und das Seeden nicht vergessen

Wuerdigt die Arbeit eines jeden Uppers mit einen Danke und/oder eines netten Kommentars.

Bin fuer Lob und Kritik stets offen.

--------------------------------------------



NFO File make with ZNFO Maker V6.0
(C)2008 by Edelweis-Group

related torrents

Torrent name

health leech seeds Size
 


comments (0)

Main Menu