TV - Other

Jackass 1 2 DVD Rip Xvid MP3

  • Download 5x Faster
  • Download torrent
  • Direct Download
  • Rate this torrent +  |  -
Jackass 1 2 DVD Rip Xvid MP3

Anonymous and Direct Download 300GB+ free


Torrent info

Name:Jackass 1 2 DVD Rip Xvid MP3

Total Size: 1.36 GB

Magnet: Magnet Link

Seeds: 3

Leechers: 0

Stream: Watch Online @ Movie4u

Last Updated: 0000-00-00 00:00:00 (Update Now)

Torrent added: 2008-10-12 08:38:49




Torrent Files List


Jackass.2.avi (Size: 1.36 GB) (Files: 2)

 Jackass.2.avi

699.54 MB

 Jackass.avi

697.18 MB
 

Announce URL: http://wreckingcrew.zapto.org/announce.php

Torrent description




...::::Edelweis-Group Presents::::...

Torrent Name: Jackass - The Movie FSK 18 & Jackass - Nummer 2 FSK 18

-------------------------

--> Movie/Serie

Sprache: [X] Deutsch [ ] Englisch [ ] siehe Beschreibung

Quelle:
Video: [ ] HDTV [X] DVD [ ] TV/dTV [ ] TS [ ] Cam [ ] Sonstiges
Audio: [ ] AC3 [X] DVD [ ] TV/dTV [ ] LD [ ] Micro [ ] Sonstiges

Genre:


Untertitel: keine

Extras: keine



-------------------------

Beschreibung:
Mit "Jackass - The Movie" ist nun endlich auch die lange Kinofassung der erfolgreichen MTV-Reality-Show um Jonny Knoxville und sein Chaoten-Team erschienen. Wie es ja mittlerweile bei diesem Haufen so üblich ist, dürfen sich alle Fans auch hier wieder auf so einiges gefasst machen. Mit Wahnsinns-Stunts, absurden Selbstexperimenten und durchgeknallten Aktionen treffen Johnny und Co. mal wieder genau den Nerv der Zeit.

Vier Jahre, nachdem sich die "Jackass"-Crew offiziell trennte und jeder seine Solopfade ging, versammeln sich Johnny Knoxville, Bam Margera, Chris Pontius, Steve-O, Dave England, Ryan Dunn, Wee Man, Preston Lacy und Ehren McGhehey zu einem weiteren Kinoanschlag auf die Sinne und den vielzitierten guten Geschmack. Unter anderem lässt man sich für Haie anködern, von Stieren herum werfen, mit Pferdeäpfeln bewerfen, von Dominas bearbeiten und von Blutegeln schröpfen.

-------------------------

Technische Details:
General
Complete name : Jackass.avi
Format : AVI
Format/Info : Audio Video Interleave
File size : 697 MiB
Duration : 1h 24mn
Overall bit rate : 1147 Kbps
Writing application : Nandub v1.0rc2
Writing library : Nandub build 1853/release

Video
Format : MPEG-4 Visual
Format settings, BVOP : No
Format settings, QPel : No
Format settings, GMC : No warppoints
Format settings, Matrix : Default
Codec ID : XVID
Codec ID/Hint : XviD
Duration : 1h 24mn
Bit rate : 982 Kbps
Width : 544 pixels
Height : 304 pixels
Display aspect ratio : 16/9
Frame rate : 25.000 fps
Resolution : 8 bits
Colorimetry : 4:2:0
Scan type : Progressive
Bits/(Pixel*Frame) : 0.238
Stream size : 597 MiB (86)

Audio
Format : MPEG Audio
Format version : Version 1
Format profile : Layer 3
Codec ID : 55
Codec ID/Hint : MP3
Duration : 1h 24mn
Bit rate mode : Variable
Bit rate : 152 Kbps
Channel(s) : 2 channels
Sampling rate : 44.1 KHz
Resolution : 16 bits
Stream size : 92.4 MiB (13)
Alignment : Aligned on interleaves
Interleave, duration : 26 ms (0.65 video frame)
Interleave, preload duration : 427 ms
Writing library : LAME3.88 (alpha)


General
Complete name : Jackass.2.avi
Format : AVI
Format/Info : Audio Video Interleave
File size : 700 MiB
Duration : 1h 29mn
Overall bit rate : 1091 Kbps
Writing application : VirtualDubMod 1.5.10.2 (build 2540/release)
Writing library : VirtualDubMod build 2540/release

Video
Format : MPEG-4 Visual
Format profile : Streaming [email protected]
Format settings, BVOP : Yes
Format settings, QPel : No
Format settings, GMC : No warppoints
Format settings, Matrix : Default
Codec ID : XVID
Codec ID/Hint : XviD
Duration : 1h 29mn
Bit rate : 947 Kbps
Width : 640 pixels
Height : 352 pixels
Display aspect ratio : 16/9
Frame rate : 25.000 fps
Resolution : 8 bits
Colorimetry : 4:2:0
Scan type : Progressive
Bits/(Pixel*Frame) : 0.168
Stream size : 607 MiB (87)
Writing library : XviD 1.1.2 (UTC 2006-11-01)

Audio
Format : MPEG Audio
Format version : Version 1
Format profile : Layer 3
Codec ID : 55
Codec ID/Hint : MP3
Duration : 1h 29mn
Bit rate mode : Variable
Bit rate : 131 Kbps
Nominal bit rate : 128 Kbps
Channel(s) : 2 channels
Sampling rate : 48.0 KHz
Resolution : 16 bits
Stream size : 84.0 MiB (12)
Alignment : Aligned on interleaves
Interleave, duration : 24 ms (0.60 video frame)
Interleave, preload duration : 140 ms
Writing library : LAME3.90.
Encoding settings : ABR



--------------------------------------------

Note:

Happy Leeching und das Seeden nicht vergessen

Wuerdigt die Arbeit eines jeden Uppers mit einen Danke und/oder eines netten Kommentars.

Bin fuer Lob und Kritik stets offen.

--------------------------------------------



NFO File make with ZNFO Maker V6.0
(C)2008 by Edelweis-Group

related torrents

Torrent name

health leech seeds Size
 


comments (0)

Main Menu