Horror

The Hills Have Eyes – Hügel der blutigen Augen

  • Download 5x Faster
  • Download torrent
  • Direct Download
  • Rate this torrent +  |  -
The Hills Have Eyes – Hügel der blutigen Augen

Anonymous and Free Direct Download 300GB+


Torrent info

Name:The Hills Have Eyes – Hügel der blutigen Augen

Total Size: 700.83 MB

Magnet: Magnet Link

Seeds: 1

Leechers: 0

Stream: Watch Online @ Movie4u

Last Updated: 0000-00-00 00:00:00 (Update Now)

Torrent added: 2008-10-12 07:48:42



VPN For Torrents

Torrent Files List


THE.HILLS.HAVE.EYES.Xvid.avi (Size: 700.83 MB) (Files: 1)

 THE.HILLS.HAVE.EYES.Xvid.avi

700.83 MB
 

Announce URL: http://darkroom.webhop.org/announce.php

Torrent description

Allgemein
Vollstndiger Name :THE.HILLS.HAVE.EYES.Xvid.avi
Format : AVI
Format/Info : Audio Video Interleave
Dateigre : 701 MiB
Duration : 1h 43min
Gesamte Bitrate : 943 Kbps
Verwendetes Programm : VirtualDubMod 1.5.4.1 (build 2178/release)
verwendete Encoder-Bibliothek : VirtualDubMod build 2178/release
IAS1 : Deutsch

Video
Format : MPEG-4 Visual
Format profile : [email protected]
Format settings, BVOP : Ja
Format settings, QPel : Nein
Format settings, GMC : No warppoints
Format settings, Matrix : Custom
Codec ID : XVID
Codec ID/Hint : XviD
Duration : 1h 43min
Bitrate : 814 Kbps
Breite : 592 Pixel
Hhe : 256 Pixel
Bildseitenverhltnis : 2.35
Bildwiederholungsrate : 25,000 FPS
Auflsung : 24 bits
Colorimetry : 4:2:0
Scan type : Progressive
Bits/(Pixel*Frame) : 0.215
Stream size : 605 MiB (86)
verwendete Encoder-Bibliothek : XviD 1.0.2 (UTC 2004-08-29)

Audio
Format : MPEG Audio
Format version : Version 1
Format profile : Layer 3
Codec ID : 55
Codec ID/Hint : MP3
Duration : 1h 43min
Bitraten-Modus : Variable
Bitrate : 116 Kbps
Kanle : 2 Kanle
Samplingrate : 48,0 KHz
Auflsung : 16 bits
Stream size : 86,1 MiB (12)
Alignment : Aligned on interleaves
Interleave, duration : 24 ms (0,60 video frame)
Interleave, preload duration : 534 ms


Beschreibung:

Eine typische amerikanische Familie ist in ihrem Wohnwagen auf dem Weg durch die Wste. Alles scheint friedlich, bis man sich in ein dland verirrt, welches von der Regierung zu Tests mit chemischen und atomaren Waffen missbraucht wurde. Doch die Familie muss bald bemerken, dass sie nicht alleine ist, denn dort lebt eine kannibalische Familie missratener Freaks und bald heit es: Glck hat, wer zuerst stirbt...

related torrents

Torrent name

health leech seeds Size
 


comments (0)

Main Menu