Anime - Other

Seto no Hanayome 1 26 complete ADBT

  • Download 5x Faster
  • Download torrent
  • Direct Download
  • Rate this torrent +  |  -
Seto no Hanayome 1 26 complete ADBT

Anonymous and Free Direct Download


Torrent info

Name:Seto no Hanayome 1 26 complete ADBT

Total Size: 4.74 GB

Magnet: Magnet Link

Seeds: 0

Leechers: 0

Stream: Watch Online @ Movie4u

Last Updated: 2011-02-06 08:48:04 (Update Now)

Torrent added: 2008-10-12 07:47:24



VPN For Torrents

Torrent Files List


[Ayako]_Seto_no_Hanayome_-_01_(XVID)_[005670F2].avi (Size: 4.74 GB) (Files: 26)

 [Ayako]_Seto_no_Hanayome_-_01_(XVID)_[005670F2].avi

190.47 MB

 [Ayako]_Seto_no_Hanayome_-_02_(XVID)_[377ADA22].avi

184.65 MB

 [Ayako]_Seto_no_Hanayome_-_03_(XVID)_[CB1CE6B9].avi

186.65 MB

 [Ayako]_Seto_no_Hanayome_-_04_(XVID)_[BFCEB247].avi

187.08 MB

 [Ayako]_Seto_no_Hanayome_-_05_(H264)_[22F2F2EA].mkv

219.66 MB

 [Ayako]_Seto_no_Hanayome_-_06_(XVID)_[15FB0955].avi

190.81 MB

 [Ayako]_Seto_no_Hanayome_-_07_(XVID)_[BA9EF1BD].avi

190.94 MB

 [Ayako]_Seto_no_Hanayome_-_08_(XVID)_[C4B2D274].avi

193.41 MB

 [Ayako]_Seto_no_Hanayome_-_09_(XVID)_[B32FF35F].avi

190.30 MB

 [Ayako]_Seto_no_Hanayome_-_10_(XVID)_[12AB029E].avi

192.00 MB

 [Ayako]_Seto_no_Hanayome_-_11v3_(XVID)_[FBFAD586].avi

196.84 MB

 [Ayako]_Seto_no_Hanayome_-_12v2_(XVID)_[9656E11D].avi

195.52 MB

 [Ayako]_Seto_no_Hanayome_-_16_[XVID]_[58DCF284].avi

206.04 MB

 [Your-Mom]_Seto_no_Hanayome_-_13_-_XVID_[09CE0AE8].avi

149.96 MB

 [Your-Mom]_Seto_no_Hanayome_-_14_-_XVID_[B94CEF20].avi

238.23 MB

 [Your-Mom]_Seto_no_Hanayome_-_15_-_H264_[8FC0AE1E].mkv

225.38 MB

 [Your-Mom]_Seto_No_Hanayome_-_17_XVID_[D254C674].avi

128.71 MB

 [Your-Mom]_Seto_No_Hanayome_-_18_XVID_[3BE1E37C].mkv

174.10 MB

 [Your-Mom]_Seto_No_Hanayome_-_19_XVID_[0F8D6F0D].mkv

168.63 MB

 [Your-Mom]_Seto_no_Hanayome_-_20_XVID_[341E43FB].mkv

172.52 MB

 [Your-Mom]_Seto_no_Hanayome_-_21_XVID_[EAC2B100].mkv

175.61 MB

 [Your-Mom]_Seto_no_Hanayome_-_22_XVID_[470B824E].mkv

174.25 MB

 [Your-Mom]_Seto_no_Hanayome_-_23_XVID_[241A9252].mkv

175.58 MB

 [Your-Mom]_Seto_no_Hanayome_-_24_[03FD485E].mkv

175.42 MB

 [Your-Mom]_Seto_no_Hanayome_-_25_XVID_[1D4489AD].mkv

181.92 MB

 [Your-Mom]_Seto_no_Hanayome_-_26_XVID_[27F263DE].mkv

187.37 MB
 

Announce URL:

Torrent description

Seto no Hanayome

----------------------------------------------------------------------------------

Infos:

Genres: action, comedy, romance, slice of life, supernatural
Themes: harem, mermaid, yakuza

Plot Summary: A young boy gets saved from drowning by a mermaid but, according to
mermaid law, if a human sees a mermaid's true form, both have to be killed. The only
solution to the problem is for him to marry her. But can they keep her secret from
being found out. ?

THX 2 Ayako & Your-Mom




Allgemein
Vollständiger Name : D:AnimeSeto no Hanayome[Your-Mo
]_Seto_no_Hanayome_-_14_-_XVID_[B94CEF20].avi
Format : AVI
Format/Info : Audio Video Interleave
Dateigre : 238 MiB
Duration : 23min
Gesamte Bitrate : 1 398 Kbps
Verwendetes Programm : VirtualDubMod 1.5.10.2 (build 2542/release)
verwendete Encoder-Bibliothek : VirtualDubMod build 2542/release

Video
Format : MPEG-4 Visual
Format profile : Streaming [email protected]
Format settings, BVOP : Ja
Format settings, QPel : Ja
Format settings, GMC : No warppoints
Format settings, Matrix : Default
Codec ID : XVID
Codec ID/Hint : XviD
Duration : 23min
Bitrate : 1 196 Kbps
Breite : 704 Pixel
Höhe : 396 Pixel
Bildseitenverhältnis : 16/9
Bildwiederholungsrate : 23,976 FPS
Original frame rate : 25,000 FPS
Auflösung : 24 bits
Colorimetry : 4:2:0
Scan type : Progressive
Bits/(Pixel*Frame) : 0.179
Stream size : 204 MiB (86)
verwendete Encoder-Bibliothek : XviD 1.2.0.dev47 (UTC 2006-11-01)

Audio
Format : MPEG Audio
Format version : Version 1
Format profile : Layer 3
Codec ID : 55
Codec ID/Hint : MP3
Duration : 23min
Bitraten-Modus : Constant
Bitrate : 192 Kbps
Kanäle : 2 Kanäle
Samplingrate : 48,0 KHz
Auflösung : 16 bits
Stream size : 32,7 MiB (14)
Alignment : Split accross interleaves
Interleave, duration : 42 ms (1,00 video frame)
Interleave, preload duration : 500 ms

Allgemein
Vollständiger Name : D:AnimeSeto no Hanayome[Your-Mo
]_Seto_no_Hanayome_-_15_-_H264_[8FC0AE1E].mkv
Format : Matroska
Dateigre : 225 MiB
Duration : 24min
Gesamte Bitrate : 1 304 Kbps
Kodierungsdatum : UTC 2007-07-16 23:27:52
Verwendetes Programm : mkvmerge v2.0.0 ('After The Rain Has Fallen')
built on Jan 13 2007 19:58:56
verwendete Encoder-Bibliothek : libebml v0.7.7 + libmatroska v0.8.0

Video
Format : AVC
Format/Info : Advanced Video Codec
Format profile : [email protected]
Format settings, CABAC : Ja
Format settings, ReFrames : 1 frame
Muxing mode : Container [email protected]
Codec ID : V_MPEG4/ISO/AVC
Duration : 24min
Bitrate : 1 051 Kbps
Breite : 704 Pixel
Höhe : 396 Pixel
Bildseitenverhältnis : 16/9
Bildwiederholungsrate : 119,881 FPS
Original frame rate : 23,976 FPS
Auflösung : 24 bits
Colorimetry : 4:2:0
Scan type : Progressive
verwendete Encoder-Bibliothek : x264 core 52 svn-573
Kodierungseinstellungen : cabac=1 / ref=1 / deblock=1:0:0 /
nalyse=0x3:0x133 / me=dia / subme=5 / brdo=0 / mixed_ref=0 / me_range=16 /
chroma_me=1 / trellis=1 / 8x8dct=1 / cqm=0 / deadzone=21,11 / chroma_qp_offset=0 /
slices=2 / nr=0 / decimate=1 / mbaff=0 / bframes=0 / keyint=500 / keyint_min=1 /
scenecut=40 / rc=cqp / qp=20 / ip_ratio=1.40

Audio
Format : MPEG Audio
Format version : Version 1
Format profile : Layer 3
Codec ID : A_MPEG/L3
Codec ID/Hint : MP3
Duration : 24min
Bitraten-Modus : Constant
Bitrate : 192 Kbps
Minimum bit rate : 192 Kbps
Kanäle : 2 Kanäle
Samplingrate : 48,0 KHz
Auflösung : 16 bits
verwendete Encoder-Bibliothek : LAME3.98a
Kodierungseinstellungen : CBR

Text
Format : ASS
Codec ID : S_TEXT/ASS
Codec ID/Info : Advanced Sub Station Alpha

Audio: japanisch
Untertitel: englisch

related torrents

Torrent name

health leech seeds Size
 


comments (0)

Main Menu