Horror

No Mans Land The Rise of Reeker (2008) DvdRip Xvid {1337x} Noir

  • Download 5x Faster
  • Download torrent
  • Direct Download
  • Rate this torrent +  |  -
No Mans Land The Rise of Reeker (2008) DvdRip Xvid {1337x} Noir

Anonymous and Free Direct Download 300GB+


Torrent info

Name:No Mans Land The Rise of Reeker (2008) DvdRip Xvid {1337x} Noir

Total Size: 710.92 MB

Magnet: Magnet Link

Seeds: 0

Leechers: 0

Stream: Watch Online @ Movie4u

Last Updated: 2015-09-09 23:34:27 (Update Now)

Torrent added: 2008-10-11 16:46:36



VPN For Torrents

Torrent Files List


1337x.Org.txt (Size: 710.92 MB) (Files: 5)

 1337x.Org.txt

0.03 KB

 No Man's Land The Rise of Reeker (2008) [DvdRip] [Xvid] {1337x}-Noir.avi

704.44 MB

 Noir.nfo

5.14 KB

 Subtitles

  No Man's Land The Rise of Reeker (2008) [DvdRip] [Xvid] {1337x}-Noir.idx

82.62 KB

  No Man's Land The Rise of Reeker (2008) [DvdRip] [Xvid] {1337x}-Noir.sub

6.40 MB
 

tracker

leech seeds
 

Torrent description

No Mans Land The Rise of Reeker (2008) DvdRip Xvid {1337x} Noir preview 0

Screenshots

No Mans Land The Rise of Reeker (2008) DvdRip Xvid {1337x} Noir preview 1

No Mans Land The Rise of Reeker (2008) DvdRip Xvid {1337x} Noir preview 2

No Mans Land The Rise of Reeker (2008) DvdRip Xvid {1337x} Noir preview 3

No Mans Land The Rise of Reeker (2008) DvdRip Xvid {1337x} Noir preview 4
[code]


▓▓▓▓▓▓
▓█████▓ ▓▓▓▓
▓██████▓ ▓▓███▓
▓▓██████▓ ▓████▓▓▓▓▓▓
██████▓ ▓██▒█▓▓███▓▓ ▓▓▓▓▓▓▓▓▓▓▓▓▓
▓██▒████▓ ▓██▒█▓██████▓▓███▓███▓███▓▓
▓██▒▒████▓ ▓██▒███▒▒▒▒██▓████████████▓
▓██▒▒▒▒███▓ ▓██▒██▒▒▒▒▒▒███▒▒▒██▒█▒▒▒██▓▓
▓██▒▒██▒▒██▓▓██▒██▒▒█▒▒▒▒███████▒▒▒▒▒▒██▓
▓██▒▒███▒▒██▓██▒██▒█▓█▒▒▒██▒▒▒██▒▒██▒▒▒█▓
▓██▒▒████▒▒████▒██▒█▓█▒▒▒██▒▒▒██▒▒███▒██▓
▓██▒▒█▓███▒▒███▒██▒▒█▒▒▒▒██▒▒▒██▒▒██████▓
▓██▒▒█▓▓███▒▒██▒██▒▒▒▒▒▒▒██▒▒▒██▒▒██▓███▓
▓▓██▒▒█▓ ▓███▒▒█▒██▒▒▒▒▒▒▒███████▒▒██▓▓▓▓▓
▓▓███▒▒█▓ ▓███▒▒▒███▒▒▒▒▒██▓▓▓▓██▒▒██▓
▓████▒▒█▓ ▓███▒▒█████████▓▓ ▓██▒▒██▓
▓████▒▒█▓ ▓███▒█▓██████▓▓▓ ▓██████▓
▓███████▓ ▓▓████▓▓▓▓▓▓▓▓ ▓▓▓▓▓▓▓▓
▓▓▓▓▓▓▓▓▓ ▓▓▓▓▓




********************************************
* No Man\'s Land: The Rise of Reeker (2008) *
********************************************

________________________
General Information |
________________________|
_______________________________________________________________
Type : Movie
Format : AVI
Format/Info : Audio Video Interleave
File size : 704Mb
Duration : 1h 28mn
Language : English
Source : Dvd NTSC
Subtitles : English,Spanish
Genre : Horror
IMDB Link : http://www.imdb.com/title/tt1090671/
Rating : 4.8/10
_______________________________________________________________
________________________________________________________________
Video
Format : MPEG-4 Visual
Format profile : Streaming [email protected]
Format settings, BVOP : Yes
Format settings, QPel : No
Format settings, GMC : No warppoints
Format settings, Matrix : Default
Muxing mode : Packed bitstream
Codec ID : XVID
Codec ID/Hint : XviD
Duration : 1h 28mn
Bit rate : 981 Kbps
Width : 608 pixels
Height : 336 pixels
Display aspect ratio : 16/9
Frame rate : 23.976 fps
Resolution : 24 bits
Colorimetry : 4:2:0
Scan type : Progressive
Bits/(Pixel*Frame) : 0.200
Stream size : 618 MiB (88%)
_______________________________________________________________
Audio
Format : MPEG Audio
Format version : Version 1
Format profile : Layer 3
Codec ID : 55
Codec ID/Hint : MP3
Duration : 1h 28mn
Bit rate mode : Constant
Bit rate : 128 Kbps
Minimum bit rate : 128 Kbps
Channel(s) : 2 channels
Sampling rate : 48.0 KHz
Resolution : 16 bits
Stream size : 80.6 MiB (11%)
Alignment : Aligned on interleaves
Interleave, duration : 42 ms (1.00 video frame)
Interleave, preload duration : 504 ms
Writing library : LAME3.98
Encoding settings : CBR
_______________________________________________________________
________________
Description
________________
_______________________________________________________________
A sheriff and his son chase casino robbers, only to find the
all of them are being chased by something else.
_______________________________________________________________

___________________
Notes
___________________
_______________________________________________________________
Be aware People are starting to use my tag to create fake files
Make sure its a real genuine release from me, I have never and
will never do Cams,Telesyncs,Telecine or RAR files.Try to check
1337x.org to see if the file exist.

Fuck the fakers and enjoy my release.
_______________________________________________________________
___________________
Post Information
___________________
_________________________________
Posted by............: Noir
Posted on............: 10/11/2008
_________________________________
[/code]
No Mans Land The Rise of Reeker (2008) DvdRip Xvid {1337x} Noir preview 5

No Mans Land The Rise of Reeker (2008) DvdRip Xvid {1337x} Noir preview 6

related torrents

Torrent name

health leech seeds Size
 


comments (0)

Main Menu