Anime - Other

Tenchi Muyo Movie 1 und 2 ADBT

  • Download 5x Faster
  • Download torrent
  • Direct Download
  • Rate this torrent +  |  -
Tenchi Muyo Movie 1 und 2 ADBT

Free and Direct Download with Usenet 300GB+ free


Torrent info

Name:Tenchi Muyo Movie 1 und 2 ADBT

Total Size: 1.59 GB

Magnet: Magnet Link

Seeds: 1

Leechers: 6

Stream: Watch Online @ Movie4u

Last Updated: 2010-08-20 05:01:23 (Update Now)

Torrent added: 2008-10-11 07:48:27




Torrent Files List


Tenchi Muyo The Movie 1.avi (Size: 1.59 GB) (Files: 2)

 Tenchi Muyo The Movie 1.avi

0.99 GB

 Tenchi Muyo The Movie 2.avi

613.17 MB
 

Announce URL: http://adbt.ath.cx/announce0000000000000000.php

Torrent description

Tenchi Muyo Movie 1 und 2 Xvid Deutsch

Movie 1

Im Japan der nahen Zukunft erscheint eine gewaltige extraterrestrische Macht namens Kain und legt
zunächst einmal die galaktische Polizeibehörde in Schutt und Asche. Als dann auch noch Superheld
Tenchi auf mysteriöse Weise die Kräfte schwinden, ist guter Rat teuer. Es stellt sich heraus, dass
Kain über die Fähigkeit zur Zeitreise verfügt und aus Rache über eine Demütigung in der Vergangenheit
nun Tenchis Eltern im Jahr 1970 ins Visier nimmt. Also muss auch Tenchi den Weg in die Vergangenheit
antreten.

Movie 2

Eigentlich ist es ein ganz normaler Sommertag im Tenchi-Haushalt, bis Tenchi auf der Treppe des
Tempels von einem etwa 14jährigen Mädchen namens Mayuka angesprochen wird, das ihn als Vater bezeichnet.
Die Mädchen des Tenchi-Haushalts reagieren darauf natürlich schockiert. Eine Gen-Analyse bringt es an
den Tag, Tenchi ist wirklich der Vater. Da auerdem kurz vor Mayukas Auftauchen das Raum-Zeit-Kontinuum
erschüttert wurde liegt die Vermutung nahe, da Mayuka Tenchis Tochter aus der Zukunft ist.
Dabei stellt sich natürlich die Frage wer ihre Mutter ist. Und warum ist Mayuka überhaupt hier?
Obwohl sie den Eindruck erweckt, sie könnte kein Wsserchen trüben, hat sie offenbar ein dunkles Geheimnis.


Allgemein
Vollständiger Name : C:Users3333DesktopTenchi Muyo Movie 1 und 2 Xvid DeutschTenchi Muyo The Movie 1.avi
Format : AVI
Format/Info : Audio Video Interleave
Dateigre : 1 015 MiB
Duration : 1h 34min
Gesamte Bitrate : 1 505 Kbps

Video
Format : MPEG-4 Visual
Format profile : [email protected]
Format settings, BVOP : Nein
Format settings, QPel : Nein
Format settings, GMC : No warppoints
Format settings, Matrix : Default
Codec ID : XVID
Codec ID/Hint : XviD
Duration : 1h 34min
Bitrate : 1 300 Kbps
Breite : 720 Pixel
Höhe : 400 Pixel
Bildseitenverhältnis : 16/9
Bildwiederholungsrate : 25,000 FPS
Auflösung : 24 bits
Colorimetry : 4:2:0
Scan type : Progressive
Bits/(Pixel*Frame) : 0.181
Stream size : 877 MiB (86)
verwendete Encoder-Bibliothek : XviD 1.1.0 Beta2 (UTC 2005-04-04)

Audio
Format : MPEG Audio
Format version : Version 1
Format profile : Layer 3
Codec ID : 55
Codec ID/Hint : MP3
Bitraten-Modus : Constant
Bitrate : 192 Kbps
Kanäle : 2 Kanäle
Samplingrate : 48,0 KHz
Auflösung : 16 bits
Stream size : 130 MiB (13)
Alignment : Aligned on interleaves
Interleave, duration : 24 ms (0,60 video frame)

Allgemein
Vollständiger Name : C:Users3333DesktopTenchi Muyo Movie 1 und 2 Xvid DeutschTenchi Muyo The Movie 2.avi
Format : AVI
Format/Info : Audio Video Interleave
Dateigre : 613 MiB
Duration : 56min
Gesamte Bitrate : 1 506 Kbps

Video
Format : MPEG-4 Visual
Format profile : [email protected]
Format settings, BVOP : Nein
Format settings, QPel : Nein
Format settings, GMC : No warppoints
Format settings, Matrix : Default
Codec ID : XVID
Codec ID/Hint : XviD
Duration : 56min
Bitrate : 1 301 Kbps
Breite : 720 Pixel
Höhe : 400 Pixel
Bildseitenverhältnis : 16/9
Bildwiederholungsrate : 25,000 FPS
Auflösung : 24 bits
Colorimetry : 4:2:0
Scan type : Progressive
Bits/(Pixel*Frame) : 0.181
Stream size : 530 MiB (86)
verwendete Encoder-Bibliothek : XviD 1.1.0 Beta2 (UTC 2005-04-04)

Audio
Format : MPEG Audio
Format version : Version 1
Format profile : Layer 3
Codec ID : 55
Codec ID/Hint : MP3
Bitraten-Modus : Constant
Bitrate : 192 Kbps
Kanäle : 2 Kanäle
Samplingrate : 48,0 KHz
Auflösung : 16 bits
Stream size : 78,2 MiB (13)
Alignment : Aligned on interleaves
Interleave, duration : 24 ms (0,60 video frame)

Audio: deutsch

related torrents

Torrent name

health leech seeds Size
 

comments (0)

Main Menu