Horror

Phantasm (1979 1998) (Complete Collection I IV) (DVDRip) KooKoo 1337x

  • Download 5x Faster
  • Download torrent
  • Direct Download
  • Rate this torrent +  |  -

Torrent info

Name:Phantasm (1979 1998) (Complete Collection I IV) (DVDRip) KooKoo 1337x

Total Size: 3.01 GB

Magnet: Magnet Link

Seeds: 0

Leechers: 0

Stream: Watch Online @ Movie4u

Last Updated: 0000-00-00 00:00:00 (Update Now)

Torrent added: 2008-10-11 04:36:16




Torrent Files List


1337x.txt (Size: 3.01 GB) (Files: 12)

 1337x.txt

0.02 KB

 KooKoo.nfo

12.68 KB

 Phantasm (1979) (DVDRip) KooKoo [1337x].avi

800.10 MB

 Phantasm II (1988) (DVDRip) KooKoo [1337x].avi

799.77 MB

 Phantasm III Lord of the Dead (1994) (DVDRip) KooKoo [1337x].avi

749.10 MB

 Phantasm IV Oblivion (1998) (DVDRip) KooKoo [1337x].avi

729.12 MB

 Subtitles

  Phantasm II Subtitles

   Phantasm II (1988) (DVDRip) KooKoo [1337x].idx

24.13 KB

   Phantasm II (1988) (DVDRip) KooKoo [1337x].sub

1.96 MB

  Phantasm IV Subtitles

   Phantasm IV Oblivion (1998) (DVDRip) KooKoo [1337x].idx

26.09 KB

   Phantasm IV Oblivion (1998) (DVDRip) KooKoo [1337x].sub

1.85 MB

  Phantasm Subtitles

   Phantasm (1979) (DVDRip) KooKoo [1337x].idx

36.56 KB

   Phantasm (1979) (DVDRip) KooKoo [1337x].sub

2.64 MB
 

Announce URL:

Torrent description


ÛÛÛÛÛÛÛÛÛÛÛÛÛÛÛÛÛÛÛÛÛÛÛÛÛÛÛÛÛÛÛÛÛÛÛÛÛÛÛÛÛÛÛÛÛÛÛÛÛÛÛÛÛÛÛÛÛÛÛÛÛÛÛÛÛÛÛ
ÛÛ ÛÛÛ ÛÛ ÛÛÛ ÛÛ ÛÛÛ ÛÛ ÛÛÛ ÛÛÛ
ÛÛ ÛÛ ÛÛ Û Û ÛÛ ÛÛ Û ÛÛ
ÛÛ Û ÛÛÛ Û Û Û ÛÛÛ Û ÛÛ
ÛÛ ÛÛÛÛ ÛÛ Û ÛÛ Û ÛÛÛÛ ÛÛ Û ÛÛ ÛÛ
ÛÛ ÛÛÛÛÛ ÛÛ Û ÛÛ Û ÛÛÛÛÛ ÛÛ Û ÛÛ ÛÛ
ÛÛ ÛÛÛÛÛÛ ÛÛ Û ÛÛ Û ÛÛÛÛÛÛ ÛÛ Û ÛÛ ÛÛ
ÛÛ ÛÛÛÛÛÛ ÛÛ Û ÛÛ Û ÛÛÛÛÛÛ ÛÛ Û ÛÛ ÛÛ
ÛÛ ÛÛÛÛÛ ÛÛ Û ÛÛ Û ÛÛÛÛÛ ÛÛ Û ÛÛ ÛÛ
ÛÛ ÛÛÛÛ Û Û ÛÛÛÛ Û ÛÛ
ÛÛ Û ÛÛÛ Û Û Û ÛÛÛ Û ÛÛ
ÛÛ ÛÛ ÛÛÛ ÛÛÛ ÛÛ ÛÛ ÛÛÛ ÛÛÛ ÛÛÛ
ÛÛ ÛÛÛ ÛÛÛÛÛÛÛÛÛÛÛÛÛÛÛÛÛÛÛ ÛÛÛ ÛÛÛÛÛÛÛÛÛÛÛÛÛÛÛÛÛÛÛÛ
ÛÛÛÛÛÛÛÛÛÛÛÛÛÛÛÛÛÛÛÛÛÛÛÛÛÛÛÛÛÛÛÛÛÛÛÛÛÛÛÛÛÛÛÛÛÛÛÛÛÛÛÛÛÛÛÛÛÛÛÛÛÛÛÛÛÛÛ



Movie Name: Phantasm I-IV
Genre: Horror | Fantasy
Release Date: 1979-1998
Country: USA
Certification: NR
IMDB Link: http://www.imdb.com/title/tt0079714/
http://www.imdb.com/title/tt0095863/
http://www.imdb.com/title/tt0110823/
http://www.imdb.com/title/tt0138703/

Plot: Four features. In 'Phantasm' after their friend is murdered, two
brothers begin a hunt in search of the killer. Their investigstion
leads them to the discovery of a startling and hideous secret.
Also features: 'Phantasm II', 'Phantasm III' and 'Phantasm IV'.





Rip Details:

Phantasm (1979) (DVDRip) KooKoo [1337x]


Format : AVI
Format/Info : Audio Video Interleave
File size : 800 MiB
Duration : 1h 30mn
Overall bit rate : 1231 Kbps
Writing application : VirtualDubMod 1.5.10.2 (build 2540/release)
Writing library : VirtualDubMod build 2540/release
Copyright : Ripped By KooKoo

Video
Format : MPEG-4 Visual
Format profile : Streaming [email protected]
Format settings, BVOP : Yes
Format settings, QPel : No
Format settings, GMC : No warppoints
Format settings, Matrix : Default
Muxing mode : Packet Bitstream
Codec ID : XVID
Codec ID/Hint : XviD
Duration : 1h 30mn
Bit rate : 1094 Kbps
Width : 624 pixels
Height : 352 pixels
Display aspect ratio : 16/9
Frame rate : 23.976 fps
Resolution : 8 bits
Colorimetry : 4:2:0
Scan type : Progressive
Bits/(Pixel*Frame) : 0.208
Stream size : 711 MiB (89%)
Writing library : XviD 1.2.0.dev47 (UTC 2006-11-01)

Audio
Format : MPEG Audio
Format version : Version 1
Format profile : Layer 3
Codec ID : 55
Codec ID/Hint : MP3
Duration : 1h 30mn
Bit rate mode : Constant
Bit rate : 128 Kbps
Minimum bit rate : 128 Kbps
Channel(s) : 2 channels
Sampling rate : 48.0 KHz
Resolution : 16 bits
Stream size : 83.2 MiB (10%)
Alignment : Aligned on interleaves
Interleave, duration : 42 ms (1.00 video frame)
Interleave, preload duration : 504 ms
Writing library : LAME3.97
Encoding settings : CBR



Phantasm II (1988) (DVDRip) KooKoo [1337x]


Format : AVI
Format/Info : Audio Video Interleave
File size : 800 MiB
Duration : 1h 32mn
Overall bit rate : 1208 Kbps
Writing application : VirtualDubMod 1.5.10.2 (build 2540/release)
Writing library : VirtualDubMod build 2540/release
Copyright : Ripped By KooKoo

Video
Format : MPEG-4 Visual
Format profile : Streaming [email protected]
Format settings, BVOP : Yes
Format settings, QPel : No
Format settings, GMC : No warppoints
Format settings, Matrix : Default
Muxing mode : Packet Bitstream
Codec ID : DX50
Codec ID/Hint : DivX 5
Duration : 1h 32mn
Bit rate : 1070 Kbps
Width : 624 pixels
Height : 336 pixels
Display aspect ratio : 1.857
Frame rate : 25.000 fps
Resolution : 8 bits
Colorimetry : 4:2:0
Scan type : Progressive
Bits/(Pixel*Frame) : 0.204
Stream size : 709 MiB (89%)
Writing library : XviD 1.2.0.dev47 (UTC 2006-11-01)

Audio
Format : MPEG Audio
Format version : Version 1
Format profile : Layer 3
Codec ID : 55
Codec ID/Hint : MP3
Duration : 1h 32mn
Bit rate mode : Constant
Bit rate : 128 Kbps
Minimum bit rate : 128 Kbps
Channel(s) : 2 channels
Sampling rate : 48.0 KHz
Resolution : 16 bits
Stream size : 84.7 MiB (11%)
Alignment : Aligned on interleaves
Interleave, duration : 40 ms (1.00 video frame)
Interleave, preload duration : 504 ms
Writing library : LAME3.97
Encoding settings : CBR


Phantasm III Lord of the Dead (1994) (DVDRip) KooKoo [1337x]


Format : AVI
Format/Info : Audio Video Interleave
File size : 749 MiB
Duration : 1h 31mn
Overall bit rate : 1150 Kbps
Writing application : VirtualDubMod 1.5.10.2 (build 2540/release)
Writing library : VirtualDubMod build 2540/release
Copyright : Ripped By KooKoo

Video
Format : MPEG-4 Visual
Format profile : Streaming [email protected]
Format settings, BVOP : Yes
Format settings, QPel : No
Format settings, GMC : No warppoints
Format settings, Matrix : Default
Muxing mode : Packet Bitstream
Codec ID : XVID
Codec ID/Hint : XviD
Duration : 1h 31mn
Bit rate : 1013 Kbps
Width : 624 pixels
Height : 336 pixels
Display aspect ratio : 1.857
Frame rate : 23.976 fps
Resolution : 8 bits
Colorimetry : 4:2:0
Scan type : Progressive
Bits/(Pixel*Frame) : 0.201
Stream size : 660 MiB (88%)
Writing library : XviD 1.2.0.dev47 (UTC 2006-11-01)

Audio
Format : MPEG Audio
Format version : Version 1
Format profile : Layer 3
Codec ID : 55
Codec ID/Hint : MP3
Duration : 1h 31mn
Bit rate mode : Constant
Bit rate : 128 Kbps
Minimum bit rate : 128 Kbps
Channel(s) : 2 channels
Sampling rate : 48.0 KHz
Resolution : 16 bits
Stream size : 83.4 MiB (11%)
Alignment : Aligned on interleaves
Interleave, duration : 42 ms (1.00 video frame)
Interleave, preload duration : 504 ms
Writing library : LAME3.97
Encoding settings : CBR


Phantasm IV Oblivion (1998) (DVDRip) KooKoo [1337x]


Format : AVI
Format/Info : Audio Video Interleave
File size : 729 MiB
Duration : 1h 29mn
Overall bit rate : 1133 Kbps
Writing application : VirtualDubMod 1.5.10.2 (build 2540/release)
Writing library : VirtualDubMod build 2540/release
Copyright : Ripped By KooKoo

Video
Format : MPEG-4 Visual
Format profile : Streaming [email protected]
Format settings, BVOP : Yes
Format settings, QPel : No
Format settings, GMC : No warppoints
Format settings, Matrix : Default
Muxing mode : Packet Bitstream
Codec ID : XVID
Codec ID/Hint : XviD
Duration : 1h 29mn
Bit rate : 996 Kbps
Width : 608 pixels
Height : 336 pixels
Display aspect ratio : 16/9
Frame rate : 23.976 fps
Resolution : 8 bits
Colorimetry : 4:2:0
Scan type : Progressive
Bits/(Pixel*Frame) : 0.203
Stream size : 641 MiB (88%)
Writing library : XviD 1.2.0.dev47 (UTC 2006-11-01)

Audio
Format : MPEG Audio
Format version : Version 1
Format profile : Layer 3
Codec ID : 55
Codec ID/Hint : MP3
Duration : 1h 29mn
Bit rate mode : Constant
Bit rate : 128 Kbps
Minimum bit rate : 128 Kbps
Channel(s) : 2 channels
Sampling rate : 48.0 KHz
Resolution : 16 bits
Stream size : 82.4 MiB (11%)
Alignment : Aligned on interleaves
Interleave, duration : 42 ms (1.00 video frame)
Interleave, preload duration : 504 ms
Writing library : LAME3.97
Encoding settings : CBR



Additional Details: Language for all films is English. Subtitles
are included for: Phantasm, Phantasm II, and
Phantasm IV. Phantasm III does not include
Subtitles. Languages for Subtitles vary.
They are mostly but not limited to: French,
English, and Spanish.




Don't forget to visit 1337x.org

related torrents

Torrent name

health leech seeds Size

Phantasm (1979)

0 4 1.46 GB 0
 


comments (0)

Main Menu