Sports related

f1 england 2008 avi

  • Download 5x Faster
  • Download torrent
  • Direct Download
  • Rate this torrent +  |  -
f1 england 2008 avi

Anonymous and Direct Download 300GB+ free


Torrent info

Name:f1 england 2008 avi

Total Size: 699.22 MB

Magnet: Magnet Link

Seeds: 1

Leechers: 3

Stream: Watch Online @ Movie4u

Last Updated: 2010-09-10 02:52:03 (Update Now)

Torrent added: 2008-07-07 12:39:23




Torrent Files List


f1 england 2008.avi (Size: 699.22 MB) (Files: 1)

 f1 england 2008.avi

699.22 MB
 

Announce URL: http://open.tracker.thepiratebay.org/announce

Torrent description

General
Complete name : D:\f1 england 2008.avi
Format : AVI
Format/Info : Audio Video Interleave
File size : 699 MiB
Duration : 1h 47mn
Overal bit rate : 914 Kbps
Writing application : FairUse Wizard - http://fairusewizard.com
Writing library : The best and REALLY easy backup tool

Video
Format : MPEG-4 Visual
Format profile : Streaming [email protected]
Format settings, BVOP : Yes
Format settings, QPel : No
Format settings, GMC : No warppoints
Format settings, Matrix : Default
Muxing mode : Packet Bitstream
Codec ID : XVID
Codec ID/Hint : XviD
Duration : 1h 47mn
Bit rate : 776 Kbps
Width : 512 pixels
Height : 368 pixels
Display aspect ratio : 1.391
Frame rate : 25.000 fps
Resolution : 8 bits
Colorimetry : 4:2:0
Scan type : Progressive
Bits/(Pixel*Frame) : 0.165
Stream size : 594 MiB
Writing library : XviD 1.2.0.dev47 (UTC 2006-11-01)

Audio
Format : MPEG Audio
Format version : Version 1
Format profile : Layer 3
Codec ID : 55
Codec ID/Hint : MP3
Duration : 1h 47mn
Bit rate mode : Constant
Bit rate : 128 Kbps
Minimum bit rate : 128 Kbps
Channel(s) : 2 channels
Sampling rate : 48.0 KHz
Resolution : 16 bits
Stream size : 98.0 MiB
Writing library : LAME3.97
Encoding settings : CBR

ENJOY AND PLEASE SEED
GBABIS2008

related torrents

Torrent name

health leech seeds Size
 


comments (0)

Main Menu