Horror

Brotherhood of Blood (2007) DvdRip Xvid {1337x} Noir

  • Download 5x Faster
  • Download torrent
  • Direct Download
  • Rate this torrent +  |  -
Brotherhood of Blood (2007) DvdRip Xvid {1337x} Noir

Anonymous and Free Direct Download 300GB+


Torrent info

Name:Brotherhood of Blood (2007) DvdRip Xvid {1337x} Noir

Total Size: 710.49 MB

Magnet: Magnet Link

Seeds: 1

Leechers: 7

Stream: Watch Online @ Movie4u

Last Updated: 2010-09-22 10:51:35 (Update Now)

Torrent added: 2008-10-10 15:54:22



VPN For Torrents

Torrent Files List


1337x.Org.txt (Size: 710.49 MB) (Files: 5)

 1337x.Org.txt

0.03 KB

 Brotherhood of Blood (2007) [DvdRip] [Xvid] {1337x}-Noir.avi

704.16 MB

 Noir.nfo

5.33 KB

 Subtitles

  Brotherhood of Blood (2007) [DvdRip] [Xvid] {1337x}-Noir.sub

6.25 MB

  Brotherhood of Blood (2007) [DvdRip] [Xvid] {1337x}-Noir.idx

80.99 KB
 

Announce URL: http://genesis.1337x.org:1337/announce

Torrent description

Brotherhood of Blood (2007) DvdRip Xvid {1337x} Noir preview 0

Screenshots

Brotherhood of Blood (2007) DvdRip Xvid {1337x} Noir preview 1

Brotherhood of Blood (2007) DvdRip Xvid {1337x} Noir preview 2

Brotherhood of Blood (2007) DvdRip Xvid {1337x} Noir preview 3

Brotherhood of Blood (2007) DvdRip Xvid {1337x} Noir preview 4
[code]


▓▓▓▓▓▓
▓█████▓ ▓▓▓▓
▓██████▓ ▓▓███▓
▓▓██████▓ ▓████▓▓▓▓▓▓
██████▓ ▓██▒█▓▓███▓▓ ▓▓▓▓▓▓▓▓▓▓▓▓▓
▓██▒████▓ ▓██▒█▓██████▓▓███▓███▓███▓▓
▓██▒▒████▓ ▓██▒███▒▒▒▒██▓████████████▓
▓██▒▒▒▒███▓ ▓██▒██▒▒▒▒▒▒███▒▒▒██▒█▒▒▒██▓▓
▓██▒▒██▒▒██▓▓██▒██▒▒█▒▒▒▒███████▒▒▒▒▒▒██▓
▓██▒▒███▒▒██▓██▒██▒█▓█▒▒▒██▒▒▒██▒▒██▒▒▒█▓
▓██▒▒████▒▒████▒██▒█▓█▒▒▒██▒▒▒██▒▒███▒██▓
▓██▒▒█▓███▒▒███▒██▒▒█▒▒▒▒██▒▒▒██▒▒██████▓
▓██▒▒█▓▓███▒▒██▒██▒▒▒▒▒▒▒██▒▒▒██▒▒██▓███▓
▓▓██▒▒█▓ ▓███▒▒█▒██▒▒▒▒▒▒▒███████▒▒██▓▓▓▓▓
▓▓███▒▒█▓ ▓███▒▒▒███▒▒▒▒▒██▓▓▓▓██▒▒██▓
▓████▒▒█▓ ▓███▒▒█████████▓▓ ▓██▒▒██▓
▓████▒▒█▓ ▓███▒█▓██████▓▓▓ ▓██████▓
▓███████▓ ▓▓████▓▓▓▓▓▓▓▓ ▓▓▓▓▓▓▓▓
▓▓▓▓▓▓▓▓▓ ▓▓▓▓▓




**************************
* Dance Of The Dead 2008 *
**************************

________________________
General Information |
________________________|
_______________________________________________________________
Type : Movie
Format : AVI
Format/Info : Audio Video Interleave
File size : 704Mb
Duration : 1h 27mn
Language : English
Source : Dvd NTSC
Subtitles : English,Spanish
Genre : Horror | Thriller
IMDB Link : http://www.imdb.com/title/tt0493404/
Rating : 6.0/10
_______________________________________________________________
________________________________________________________________
Video
Format : MPEG-4 Visual
Format profile : Streaming [email protected]
Format settings, BVOP : Yes
Format settings, QPel : No
Format settings, GMC : No warppoints
Format settings, Matrix : Default
Muxing mode : Packed bitstream
Codec ID : XVID
Codec ID/Hint : XviD
Duration : 1h 27mn
Bit rate : 985 Kbps
Width : 608 pixels
Height : 336 pixels
Display aspect ratio : 16/9
Frame rate : 23.976 fps
Resolution : 24 bits
Colorimetry : 4:2:0
Scan type : Progressive
Bits/(Pixel*Frame) : 0.201
Stream size : 618 MiB (88%)
_______________________________________________________________
Audio
Format : MPEG Audio
Format version : Version 1
Format profile : Layer 3
Codec ID : 55
Codec ID/Hint : MP3
Duration : 1h 27mn
Bit rate mode : Constant
Bit rate : 128 Kbps
Minimum bit rate : 128 Kbps
Channel(s) : 2 channels
Sampling rate : 48.0 KHz
Resolution : 16 bits
Stream size : 80.3 MiB (11%)
Alignment : Aligned on interleaves
Interleave, duration : 42 ms (1.00 video frame)
Interleave, preload duration : 504 ms
Writing library : LAME3.97
Encoding settings : CBR
_______________________________________________________________
________________
Description
________________
_______________________________________________________________
Carrie Rieger tugs at her bonds. The young vampire huntress
has to free herself. Guarded by vampires, chained in a dark
cellar by the mighty vampire King Pashek, her time is running
out. She knows an even greater threat than the vampires is
coming relentlessly closer. Everything will be decided tonight.
_______________________________________________________________

___________________
Notes
___________________
_______________________________________________________________
Be aware People are starting to use my tag to create fake files
Make sure its a real genuine release from me, I have never and
will never do Cams,Telesyncs,Telecine or RAR files.Try to check
1337x.org to see if the file exist.

Fuck the fakers and enjoy my release.
_______________________________________________________________
___________________
Post Information
___________________
_________________________________
Posted by............: Noir
Posted on............: 10/10/2008
_________________________________
[code]
Brotherhood of Blood (2007) DvdRip Xvid {1337x} Noir preview 5

Brotherhood of Blood (2007) DvdRip Xvid {1337x} Noir preview 6

related torrents

Torrent name

health leech seeds Size
 


comments (0)

Main Menu