Other

The Bank Job 2008 MULTiSUBS DVDRip XviD Cocc

  • Download 5x Faster
  • Download torrent
  • Direct Download
  • Rate this torrent +  |  -
The Bank Job 2008 MULTiSUBS DVDRip XviD Cocc

Anonymous and Direct Download 300GB+ free


Torrent info

Name:The Bank Job 2008 MULTiSUBS DVDRip XviD Cocc

Total Size: 702.85 MB

Magnet: Magnet Link

Seeds: 0

Leechers: 0

Stream: Watch Online @ Movie4u

Last Updated: 2011-08-04 12:04:20 (Update Now)

Torrent added: 2008-10-10 12:46:09




Torrent Files List


Sub.rar (Size: 702.85 MB) (Files: 2)

 Sub.rar

3.79 MB

 The.Bank.Job.2008.MULTiSUBS.DVDRip.XviD-Cocc.avi

699.07 MB
 

Announce URL:

Torrent description

The Bank Job (2008)

Business is slow for Terry Leather, a London car dealer, married
with children. He's an artful dodger, so Martine, a former model
with a thing for him, brings him her scheme: a bank's alarm is
off for a couple weeks, so let's tunnel into the vault.
He assembles a team, not realizing her real goal is a safe-deposit
box with compromising photos of a royal: she needs the photos to
trade for avoiding a jail sentence - and M-5, or is it M-6, is
pulling the strings two steps removed. A Trinidadian thug, a
high-end bordello owner, and a pornographer also have things stored
in the vault, so the break-in threatens many a powerful personage.
Is there any way these amateurs can pull it off?



Subtitles; Da,Fi,No,Sv


IMDb http://www.imdb.com/title/tt0200465/




General
Complete name : The.Bank.Job.2008.MULTiSUBS.DVDRip.XviD-Cocc.avi
Format : AVI
Format/Info : Audio Video Interleave
File size : 699 MiB
Duration : 1h 47mn
Overall bit rate : 913 Kbps

Video
Format : MPEG-4 Visual
Format profile : Streaming [email protected]
Format settings, BVOP : Yes
Format settings, QPel : No
Format settings, GMC : No warppoints
Format settings, Matrix : Default
Codec ID : XVID
Codec ID/Hint : XviD
Duration : 1h 47mn
Bit rate : 771 Kbps
Width : 640 pixels
Height : 272 pixels
Display aspect ratio : 2.35
Frame rate : 25.000 fps
Resolution : 24 bits
Colorimetry : 4:2:0
Scan type : Progressive
Bits/(Pixel*Frame) : 0.177
Stream size : 591 MiB (85%)
Writing library : XviD 1.1.2 (UTC 2006-11-01)

Audio
Format : MPEG Audio
Format version : Version 1
Format profile : Layer 3
Codec ID : 55
Codec ID/Hint : MP3
Duration : 1h 47mn
Bit rate mode : Variable
Bit rate : 128 Kbps
Channel(s) : 2 channels
Sampling rate : 48.0 KHz
Resolution : 16 bits
Stream size : 98.3 MiB (14%)
Alignment : Aligned on interleaves
Interleave, duration : 24 ms (0.60 video frame)
Interleave, preload duration : 296 ms
Writing library : LAME3.90.
Encoding settings : ABR

Created with: DP MediaInfo version 1.05 (c) by Dirk Paehl
MediaInfoLib - v0.7.7.6

related torrents

Torrent name

health leech seeds Size

The Bank Job (2008)

25 41 846.72 MB 0
 


comments (0)

Main Menu