Anime - Other

Tenchi Muyo 1 13 COMPLETE

  • Download 5x Faster
  • Download torrent
  • Direct Download
  • Rate this torrent +  |  -
Tenchi Muyo 1 13 COMPLETE

Anonymous and Free Direct Download 300GB+


Torrent info

Name:Tenchi Muyo 1 13 COMPLETE

Total Size: 4.32 GB

Magnet: Magnet Link

Seeds: 0

Leechers: 0

Stream: Watch Online @ Movie4u

Last Updated: 2016-03-18 10:28:55 (Update Now)

Torrent added: 2008-10-10 10:47:12



VPN For Torrents

Torrent Files List


Tenchi Muyo 01.avi (Size: 4.32 GB) (Files: 13)

 Tenchi Muyo 01.avi

308.39 MB

 Tenchi Muyo 02.avi

318.35 MB

 Tenchi Muyo 03.avi

317.14 MB

 Tenchi Muyo 04.avi

317.53 MB

 Tenchi Muyo 05.avi

316.96 MB

 Tenchi Muyo 06.avi

333.18 MB

 Tenchi Muyo 07.avi

469.24 MB

 Tenchi Muyo 08.avi

312.56 MB

 Tenchi Muyo 09.avi

317.35 MB

 Tenchi Muyo 10.avi

298.35 MB

 Tenchi Muyo 11.avi

306.18 MB

 Tenchi Muyo 12.avi

330.61 MB

 Tenchi Muyo 13.avi

477.02 MB
 

tracker

leech seeds
 

Torrent description

Tenchi Muyo 1-13 - COMPLETE - Xvid Deutsch

Neugier kann tödlich sein Das muss der 17-jährige Tenchi um ein Haar am eigenen Leibe erfahren, als
er in die verbotene Höhle nahe dem Shinto-Schrein seines Großvaters eindringt und die dort seit
Jahrhunderten schlafende Dämonin Ryoko weckt. Die findet es nämlich überhaupt nicht lustig, 700 Jahre
eingesperrt gewesen zu sein! Doch das ist er der Anfang von Tenchis Schwierigkeiten .

Allgemein
Vollständiger Name : C:Users3333DesktopTenchi Muyo - 1 bis 13Tenchi Muyo 01.avi
Format : AVI
Format/Info : Audio Video Interleave
Dateigre : 308 MiB
Duration : 28min
Gesamte Bitrate : 1 506 Kbps

Video
Format : MPEG-4 Visual
Format profile : [email protected]
Format settings, BVOP : Nein
Format settings, QPel : Nein
Format settings, GMC : No warppoints
Format settings, Matrix : Default
Codec ID : XVID
Codec ID/Hint : XviD
Duration : 28min
Bitrate : 1 302 Kbps
Breite : 720 Pixel
Höhe : 576 Pixel
Bildseitenverhältnis : 5/4
Bildwiederholungsrate : 25,000 FPS
Standard : PAL
Auflösung : 24 bits
Colorimetry : 4:2:0
Scan type : Progressive
Bits/(Pixel*Frame) : 0.126
Stream size : 266 MiB (86)
verwendete Encoder-Bibliothek : XviD 1.1.0 Beta2 (UTC 2005-04-04)

Audio
Format : MPEG Audio
Format version : Version 1
Format profile : Layer 3
Codec ID : 55
Codec ID/Hint : MP3
Bitraten-Modus : Constant
Bitrate : 192 Kbps
Kanäle : 2 Kanäle
Samplingrate : 48,0 KHz
Auflösung : 16 bits
Stream size : 39,3 MiB (13)
Alignment : Aligned on interleaves
Interleave, duration : 24 ms (0,60 video frame)


Audio: deutsch

related torrents

Torrent name

health leech seeds Size

Tenchi Muyo Complete OST

0 0 414.45 MB 0
 


comments (0)

Main Menu