Anime - Other

Zegapain 1 26 complete

  • Download 5x Faster
  • Download torrent
  • Direct Download
  • Rate this torrent +  |  -
Zegapain 1 26 complete

Download FREE And Anonymously


Torrent info

Name:Zegapain 1 26 complete

Total Size: 5.85 GB

Magnet: Magnet Link

Seeds: 0

Leechers: 0

Stream: Watch Full Movie @ Movie4u

Last Updated: 2015-09-18 23:20:09 (Update Now)

Torrent added: 2008-10-10 10:47:08



VPN For Torrents

Torrent Files List


ZegaPian info.txt (Size: 5.85 GB) (Files: 27)

 ZegaPian info.txt

1.41 KB

 [Megami]_Zegapain_-_01_[2AA61987].mp4

230.03 MB

 [Megami]_ZegaPain_-_02_[F7EA3EFB].mp4

230.11 MB

 [Megami]_ZegaPain_-_03_[CE358D0F].mp4

230.22 MB

 [Megami]_Zegapain_-_04_[13AEDCA0].mp4

230.12 MB

 [Megami]_ZegaPain_-_05_[C80AFE5B].mp4

229.57 MB

 [Megami]_ZegaPain_-_06_[9A480D8D].mp4

230.22 MB

 [Megami]_ZegaPain_-_07_[870E5324].mp4

230.03 MB

 [Megami]_ZegaPain_-_08_[ED36A855].mp4

230.19 MB

 [Megami]_ZegaPain_-_09_[269B1A66].mp4

230.13 MB

 [Megami]_ZegaPain_-_10_[7D757240].mp4

230.10 MB

 [Megami]_ZegaPain_-_11_[0F66F798].mp4

230.17 MB

 [Megami]_ZegaPain_-_12_[B029B62E].mp4

230.07 MB

 [Megami]_ZegaPain_-_13_[0C16C7DE].mp4

230.01 MB

 [Megami]_Zegapain_-_14v2_[D91F0C22].mp4

230.02 MB

 [Megami]_Zegapain_-_15_[C36604F3].mp4

229.93 MB

 [Megami]_Zegapain_-_16_[99FD027B].mp4

229.93 MB

 [Megami]_Zegapain_-_17_[E9F0C7C7].mp4

230.02 MB

 [Megami]_Zegapain_-_18_[EC8FD237].mp4

229.92 MB

 [Megami]_Zegapain_-_19_[F30A7473].mp4

230.12 MB

 [Megami]_Zegapain_-_20_[18634FCF].mp4

230.00 MB

 [Megami]_Zegapain_-_21_[71706A66].mp4

229.92 MB

 [Megami]_Zegapain_-_22_[7E86bC30].mp4

229.82 MB

 [Megami]_Zegapain_-_23_[CDA5A4C0].mp4

229.90 MB

 [Megami]_Zegapain_-_24_[A916E5C9].mp4

233.37 MB

 [Megami]_Zegapain_-_25_[878F1AC5].mp4

233.38 MB

 [Megami]_Zegapain_-_26_[END][446180E5].mp4

229.13 MB
 

tracker

leech seeds
 

Torrent description

Zegapain

----------------------------------------------------------------------------------

Infos:

Genres: drama, mystery, romance, science fiction
Themes: Mecha

Plot Summary: Kyo, an avid swimmer tries his best to keep the high school swimming
club going, which is pretty hard when he's the only member. Facing the prospect of
the club being closed by the student council, he tries to enlist beautiful Misaki to
act in a promo video, shot by his good friend Ryoko, in a bid to start a recruitment
drive. She agrees but only if he pilots a mecha under the wing of Celebrum, a
resistance organisation fighting to destroy Deutera Areas formed on Earth by the
aliens Gards-orm. He agrees but finds it all strangely familiar as if he's done it
before....




Allgemein
Vollständiger Name : D:AnimeZegaPain[Megami]_Zegapai
_-_01_[2AA61987].mp4
Format : MPEG-4
Format profile : Base Media
Codec ID : isom
Dateigröße : 230 MiB
Duration : 23min
Gesamte Bitrate : 1 359 Kbps
Kodierungsdatum : UTC 2006-05-03 16:52:05
Tagging-Datum : UTC 2006-05-03 16:52:05

Video
Format : AVC
Format/Info : Advanced Video Codec
Format profile : [email protected]
Format settings, CABAC : Ja
Format settings, ReFrames : 1 frame
Codec ID : avc1
Codec ID/Info : Advanced Video Coding
Duration : 23min
Bitraten-Modus : Variable
Bitrate : 1 191 Kbps
Maximum bit rate : 8 050 Kbps
Breite : 852 Pixel
Höhe : 480 Pixel
Bildseitenverhältnis : 16/9
Frame rate mode : Constant
Bildwiederholungsrate : 23,976 FPS
Auflösung : 24 bits
Colorimetry : 4:2:0
Scan type : Progressive
Bits/(Pixel*Frame) : 0.121
Stream size : 202 MiB (88%)
verwendete Encoder-Bibliothek : x264 core 45 svn-487
Kodierungseinstellungen : cabac=1 / ref=1 / deblock=1:0:0 /
nalyse=0x1:0x111 / me=hex / subme=5 / brdo=0 / mixed_ref=0 / me_range=16 /
chroma_me=1 / trellis=0 / 8x8dct=0 / cqm=0 / chroma_qp_offset=0 / slices=1 / nr=0 /
bframes=0 / keyint=250 / keyint_min=25 / scenecut=40 / rc=2pass / bitrate=1191 /
ratetol=1.0 / rceq='blurCplx^(1-qComp)' / qcomp=0.60 / qpmin=10 / qpmax=51 /
qpstep=4 / cplxblur=20.0 / qblur=0.5 / ip_ratio=1.40
Kodierungsdatum : UTC 2006-05-03 15:37:37
Tagging-Datum : UTC 2006-05-03 16:52:27

Audio
Format : AAC
Format/Info : Advanced Audio Codec
Format version : Version 4
Format profile : LC
Format settings, SBR : Nein
Codec ID : 40
Duration : 23min
Bitraten-Modus : Variable
Bitrate : 165 Kbps
Maximum bit rate : 230 Kbps
Kanäle : 2 Kanäle
Channel positions : L R
Samplingrate : 48,0 KHz
Auflösung : 16 bits
Stream size : 28,0 MiB (12%)
Kodierungsdatum : UTC 2006-05-03 16:52:22
Tagging-Datum : UTC 2006-05-03 16:52:27

Audio: japanisch
Untertitel: englisch

related torrents

Torrent name

health leech seeds Size
 


comments (0)

Main Menu

 

script data-cfasync="false" src="//d2ghscazvn398x.cloudfront.net/?cshgd=690275">